<?xml version="1.0" standalone="no"?>
<!DOCTYPE svg PUBLIC "-//W3C//DTD SVG 1.1//EN" "http://www.w3.org/Graphics/SVG/1.1/DTD/svg11.dtd" >
<svg xmlns="http://www.w3.org/2000/svg" xmlns:xlink="http://www.w3.org/1999/xlink" version="1.1">
<metadata>
Created by FontForge 20201107 at Wed Feb 19 00:50:47 2014
 By Unknown
Copyright (c) 2014 by Rene' Bieder. All rights reserved.
</metadata>
<defs>
<font id="Campton-Bold" horiz-adv-x="600" >
  <font-face 
    font-family="Campton Book"
    font-weight="700"
    font-stretch="normal"
    units-per-em="1000"
    panose-1="0 0 8 0 0 0 0 0 0 0"
    ascent="800"
    descent="-200"
    x-height="485"
    cap-height="680"
    bbox="-66 -274 1489 979"
    underline-thickness="50"
    underline-position="-100"
    unicode-range="U+0020-FB02"
  />
<missing-glyph horiz-adv-x="870" 
d="M770 680v-680h-670v680h670zM700 610h-481l481 -481v481zM170 70h477l-477 477v-477z" />
    <glyph glyph-name="fi" unicode="fi" horiz-adv-x="734" 
d="M676 485v-485h-162v346h-230v-346h-162v346h-119v139h119v38q0 113 64.5 180t164.5 67q37 0 70 -4t54 -8.5t78 -18.5l-27 -136q-100 20 -148 20q-45 0 -69.5 -27t-24.5 -76v-35h392z" />
    <glyph glyph-name="fl" unicode="fl" horiz-adv-x="728" 
d="M122 485v58q0 104 59.5 165.5t153.5 61.5q61 0 129 -18l-22 -135q-41 9 -74 9q-38 0 -61 -21.5t-23 -57.5v-62h148v-139h-148v-346h-162v346h-119v139h119zM673 710v-710h-162v710h162z" />
    <glyph glyph-name=".notdef" horiz-adv-x="870" 
d="M770 680v-680h-670v680h670zM700 610h-481l481 -481v481zM170 70h477l-477 477v-477z" />
    <glyph glyph-name=".null" horiz-adv-x="0" 
 />
    <glyph glyph-name="nonmarkingreturn" horiz-adv-x="333" 
 />
    <glyph glyph-name="space" unicode=" " horiz-adv-x="257" 
 />
    <glyph glyph-name="exclam" unicode="!" horiz-adv-x="295" 
d="M218 222h-142l-14 458h170zM147 -11q-36 0 -61.5 24t-25.5 60t25.5 60t61.5 24t62 -24t26 -60t-26 -60t-62 -24z" />
    <glyph glyph-name="quotedbl" unicode="&#x22;" horiz-adv-x="368" 
d="M163 680v-296h-131v296h131zM337 680v-296h-131v296h131z" />
    <glyph glyph-name="numbersign" unicode="#" horiz-adv-x="793" 
d="M603 282h109v-136h-152l-46 -146h-156l46 146h-136l-45 -146h-156l45 146h-85v136h128l31 100h-104v136h147l51 163h156l-51 -163h135l51 163h156l-51 -163h91v-136h-133zM342 382l-31 -100h136l31 100h-136z" />
    <glyph glyph-name="dollar" unicode="$" horiz-adv-x="676" 
d="M629 207q0 -87 -57.5 -144t-156.5 -72v-101h-131v100q-101 14 -167.5 73.5t-76.5 162.5h169q8 -45 45.5 -70.5t97.5 -25.5q47 0 71.5 16t24.5 44q0 44 -72 58l-112 25q-101 22 -149 70.5t-48 129.5q0 89 59 147.5t158 71.5v107h131v-111q85 -17 144.5 -69t68.5 -150h-170
q-15 86 -110 86q-44 0 -70.5 -18t-26.5 -50q0 -27 19 -41t59 -23l95 -22q101 -22 153 -66.5t52 -127.5z" />
    <glyph glyph-name="percent" unicode="%" horiz-adv-x="1091" 
d="M270 695q88 0 146.5 -56t58.5 -144t-58.5 -144.5t-146.5 -56.5t-146.5 56.5t-58.5 144.5t58.5 144t146.5 56zM366 0h-108l454 680h108zM271 400q39 0 66.5 26.5t27.5 68.5t-27.5 68.5t-66.5 26.5q-40 0 -67.5 -26.5t-27.5 -68.5t27.5 -68.5t67.5 -26.5zM820 386
q88 0 146.5 -56t58.5 -144t-58.5 -144.5t-146.5 -56.5t-146.5 56.5t-58.5 144.5t58.5 144t146.5 56zM820 90q39 0 67 27t28 69q0 41 -28 67.5t-67 26.5t-66.5 -26.5t-27.5 -67.5q0 -42 27.5 -69t66.5 -27z" />
    <glyph glyph-name="ampersand" unicode="&#x26;" horiz-adv-x="738" 
d="M523 0l-43 41q-83 -56 -197 -56q-117 0 -188.5 59t-71.5 155q0 117 115 179q-41 59 -41 119q0 84 62.5 141t164.5 57q100 0 160 -57.5t68 -156.5h-152q-4 36 -22.5 56t-48.5 20q-28 0 -46 -17.5t-18 -46.5q0 -28 20.5 -54.5t77.5 -79.5l113 -110l72 118h165l-129 -213
l-4 -7l151 -147h-208zM286 121q42 0 86 21l-108 101l-38 36q-47 -30 -47 -74q0 -35 31 -59.5t76 -24.5z" />
    <glyph glyph-name="quotesingle" unicode="'" horiz-adv-x="194" 
d="M163 680v-296h-131v296h131z" />
    <glyph glyph-name="parenleft" unicode="(" horiz-adv-x="389" 
d="M258 738l111 -111q-79 -84 -116.5 -160t-37.5 -176q0 -99 37.5 -174t116.5 -159l-111 -111q-214 197 -214 444q0 250 214 447z" />
    <glyph glyph-name="parenright" unicode=")" horiz-adv-x="386" 
d="M20 627l111 111q214 -197 214 -447q0 -247 -214 -444l-111 111q79 84 116.5 159t37.5 174q0 100 -37.5 176t-116.5 160z" />
    <glyph glyph-name="asterisk" unicode="*" horiz-adv-x="412" 
d="M379 470l-42 -72l-89 53v-96h-84v96l-89 -53l-42 72l91 55l-91 55l42 73l89 -54v94h84v-94l89 54l42 -73l-91 -55z" />
    <glyph glyph-name="plus" unicode="+" horiz-adv-x="669" 
d="M401 264v-164h-133v164h-171v128h171v164h133v-164h172v-128h-172z" />
    <glyph glyph-name="comma" unicode="," horiz-adv-x="234" 
d="M27 -113l52 111q-52 22 -52 73q0 35 26.5 60t63.5 25q38 0 64 -24.5t26 -61.5q0 -32 -30 -83l-60 -100h-90z" />
    <glyph glyph-name="hyphen" unicode="-" horiz-adv-x="554" 
d="M458 181v154h-361v-154h361z" />
    <glyph glyph-name="period" unicode="." horiz-adv-x="235" 
d="M117 -18q-37 0 -63.5 25.5t-26.5 62.5q0 36 26.5 61.5t63.5 25.5q38 0 65 -25.5t27 -61.5q0 -37 -27 -62.5t-65 -25.5z" />
    <glyph glyph-name="slash" unicode="/" horiz-adv-x="431" 
d="M187 -160h-155l252 890h155z" />
    <glyph glyph-name="zero" unicode="0" horiz-adv-x="718" 
d="M359 695q145 0 230 -99t85 -256t-85 -256t-230 -99t-230 99t-85 256t85 256t230 99zM359 132q73 0 114 58t41 150t-41 150t-114 58t-114 -58t-41 -150t41 -150t114 -58z" />
    <glyph glyph-name="one" unicode="1" horiz-adv-x="531" 
d="M526 137v-137h-491v137h170v365l-160 -45v146l222 77h101v-543h158z" />
    <glyph glyph-name="two" unicode="2" horiz-adv-x="572" 
d="M531 137v-137h-485v80l207 251q9 10 24 28t21.5 26t17.5 21t15.5 20.5t9.5 17.5t7 18.5t2 17.5q0 27 -18.5 47t-55.5 20q-36 0 -57.5 -21.5t-25.5 -60.5h-161q2 104 65.5 167t177.5 63t181.5 -60.5t67.5 -148.5q0 -47 -29.5 -94.5t-110.5 -144.5l-92 -110h239z" />
    <glyph glyph-name="three" unicode="3" horiz-adv-x="578" 
d="M459 342q87 -48 87 -145q0 -93 -71 -152.5t-185 -59.5q-116 0 -180.5 57t-76.5 157h158q8 -38 32 -58t73 -20q41 0 67 21.5t26 54.5q0 35 -28.5 56.5t-72.5 21.5h-59v124h59q40 0 64.5 21.5t24.5 56.5t-22.5 56t-60.5 21t-62.5 -21.5t-27.5 -57.5h-157q6 98 71.5 156
t171.5 58q107 0 172 -57t65 -149t-68 -141z" />
    <glyph glyph-name="four" unicode="4" horiz-adv-x="656" 
d="M622 120h-85v-120h-159v120h-346v105l185 455h162l-160 -419h159v187h159v-187h85v-141z" />
    <glyph glyph-name="five" unicode="5" horiz-adv-x="611" 
d="M239 442h84q112 0 177.5 -62t65.5 -160q0 -104 -72 -169.5t-189 -65.5q-114 0 -185.5 58t-82.5 156h159q22 -78 109 -78q47 0 77 27t30 69q0 41 -31 66t-85 25h-212l1 372h449v-144h-294z" />
    <glyph glyph-name="six" unicode="6" horiz-adv-x="624" 
d="M464 680l-130 -203q112 -6 182.5 -74t70.5 -166q0 -108 -77 -180t-198 -72t-197.5 72t-76.5 177q0 71 58 165l177 281h191zM312 120q50 0 83 33.5t33 77.5t-32.5 77t-83.5 33q-48 0 -80 -23l-4 -7q-33 -47 -33 -81q0 -44 33.5 -77t83.5 -33z" />
    <glyph glyph-name="seven" unicode="7" horiz-adv-x="524" 
d="M506 680v-95l-261 -585h-184l240 529h-291v151h496z" />
    <glyph glyph-name="eight" unicode="8" horiz-adv-x="623" 
d="M478 361q109 -54 109 -164q0 -97 -73.5 -154.5t-202.5 -57.5q-128 0 -201 57.5t-73 154.5q0 110 108 164q-80 48 -80 138q0 87 69 141.5t177 54.5q109 0 178 -54.5t69 -141.5q0 -88 -80 -138zM311 573q-41 0 -67 -24t-26 -60t26 -60t67 -24t67.5 24.5t26.5 59.5
q0 36 -26.5 60t-67.5 24zM311 117q44 0 73.5 26.5t29.5 64.5t-29 63t-74 25q-44 0 -73 -25t-29 -63q0 -39 29 -65t73 -26z" />
    <glyph glyph-name="nine" unicode="9" horiz-adv-x="624" 
d="M312 695q121 0 197.5 -72t76.5 -177q0 -71 -58 -165l-177 -281h-191l130 203q-112 6 -182.5 74t-70.5 166q0 108 77 180t198 72zM392 362l4 7q33 47 33 81q0 44 -33.5 77t-83.5 33t-83 -33.5t-33 -77.5t32.5 -77t83.5 -33q48 0 80 23z" />
    <glyph glyph-name="colon" unicode=":" horiz-adv-x="235" 
d="M117 322q-37 0 -63.5 25t-26.5 63q0 36 26.5 61t63.5 25q38 0 65 -25t27 -61q0 -38 -27 -63t-65 -25zM118 -18q-38 0 -64.5 25.5t-26.5 62.5t26.5 62t64.5 25t64.5 -25t26.5 -62t-26.5 -62.5t-64.5 -25.5z" />
    <glyph glyph-name="semicolon" unicode=";" horiz-adv-x="235" 
d="M117 322q-37 0 -63.5 25t-26.5 63q0 36 26.5 61t63.5 25q38 0 65 -25t27 -61q0 -38 -27 -63t-65 -25zM28 -113l52 111q-52 22 -52 73q0 35 26.5 60t63.5 25q38 0 64 -24.5t26 -61.5q0 -32 -30 -83l-60 -100h-90z" />
    <glyph glyph-name="less" unicode="&#x3c;" horiz-adv-x="529" 
d="M465 570v-147l-258 -116l258 -117v-147l-422 190v147z" />
    <glyph glyph-name="equal" unicode="=" horiz-adv-x="675" 
d="M579 361h-482v128h482v-128zM579 154h-482v128h482v-128z" />
    <glyph glyph-name="greater" unicode="&#x3e;" horiz-adv-x="529" 
d="M485 233l-422 -190v147l258 117l-258 116v147l422 -190v-147z" />
    <glyph glyph-name="question" unicode="?" horiz-adv-x="539" 
d="M183 219l-10 163h82q43 0 71 23.5t28 63.5q0 38 -24 61.5t-64 23.5t-64.5 -21.5t-27.5 -57.5h-157q6 99 69 156.5t175 57.5q106 0 174.5 -61t68.5 -159q0 -79 -52 -129.5t-141 -62.5l-5 -58h-123zM240 -11q-36 0 -61.5 24t-25.5 60t25.5 60t61.5 24t62 -24t26 -60
t-26 -60t-62 -24z" />
    <glyph glyph-name="at" unicode="@" horiz-adv-x="990" 
d="M713 442v-242q0 -70 48 -70q70 0 70 128q0 136 -92 225.5t-233 89.5q-145 0 -245 -96t-100 -235t98.5 -235t238.5 -96q122 0 214 73l58 -87q-116 -87 -271 -87q-186 0 -316 124.5t-130 307.5q0 120 60.5 219.5t163.5 155.5t226 56q186 0 310 -117t124 -295
q0 -106 -45 -169.5t-138 -63.5q-103 0 -146 65q-60 -63 -147 -63q-84 0 -142.5 60.5t-58.5 150.5t58 150.5t143 60.5q64 0 114 -34v24h138zM490 145q52 0 88 46q-3 27 -3 54v49q-36 44 -85 44q-37 0 -65.5 -26.5t-28.5 -70.5t28 -70t66 -26z" />
    <glyph glyph-name="A" unicode="A" horiz-adv-x="763" 
d="M525 117h-288l-45 -117h-180l289 684h162l288 -684h-180zM469 261l-88 226l-88 -226h176z" />
    <glyph glyph-name="B" unicode="B" horiz-adv-x="694" 
d="M535 350q60 -13 92 -58t32 -103q0 -86 -65 -137.5t-178 -51.5h-356v680h336q110 0 171.5 -48.5t61.5 -132.5q0 -49 -25.5 -91.5t-68.5 -57.5zM229 542v-139h140q47 0 73 19.5t26 53.5q0 66 -99 66h-140zM229 140h164q50 0 75.5 19.5t25.5 51.5q0 63 -97 63h-168v-134z
" />
    <glyph glyph-name="C" unicode="C" horiz-adv-x="789" 
d="M403 144q67 0 110.5 36.5t57.5 101.5h174q-17 -133 -110 -214.5t-231 -81.5q-154 0 -257 100.5t-103 253.5t103 253.5t257 100.5q138 0 231 -81.5t110 -214.5h-174q-14 65 -57.5 101.5t-110.5 36.5q-83 0 -135.5 -55.5t-52.5 -140.5t52.5 -140.5t135.5 -55.5z" />
    <glyph glyph-name="D" unicode="D" horiz-adv-x="737" 
d="M60 680h273q161 0 264 -94.5t103 -243.5q0 -151 -103 -246.5t-264 -95.5h-273v680zM229 152h104q83 0 139 54.5t56 135.5q0 79 -56 132.5t-139 53.5h-104v-376z" />
    <glyph glyph-name="E" unicode="E" horiz-adv-x="610" 
d="M229 533v-124h302v-144h-302v-118h345v-147h-514v680h514v-147h-345z" />
    <glyph glyph-name="F" unicode="F" horiz-adv-x="583" 
d="M229 531v-144h292v-147h-292v-240h-169v680h508v-149h-339z" />
    <glyph glyph-name="G" unicode="G" horiz-adv-x="809" 
d="M754 382v-382h-126l-7 82q-78 -96 -215 -96q-158 0 -260 99.5t-102 247.5q0 158 103.5 259.5t259.5 101.5q129 0 224 -68.5t116 -187.5h-178q-37 101 -158 101q-88 0 -142 -56t-54 -146q0 -82 54.5 -138t142.5 -56q119 0 173 104l-195 2v133h364z" />
    <glyph glyph-name="H" unicode="H" horiz-adv-x="734" 
d="M674 680v-680h-168v255h-277v-255h-169v680h169v-273h277v273h168z" />
    <glyph glyph-name="I" unicode="I" horiz-adv-x="289" 
d="M229 680v-680h-169v680h169z" />
    <glyph glyph-name="J" unicode="J" horiz-adv-x="623" 
d="M573 680v-408q0 -138 -74 -212.5t-207 -74.5q-121 0 -195 67.5t-79 188.5h168q3 -48 33 -75t78 -27q47 0 75.5 35t28.5 98v408h172z" />
    <glyph glyph-name="K" unicode="K" horiz-adv-x="728" 
d="M326 250l-97 -112v-138h-169v680h169v-309l271 309h200l-259 -298l281 -382h-206z" />
    <glyph glyph-name="L" unicode="L" horiz-adv-x="585" 
d="M565 149v-149h-505v680h169v-531h336z" />
    <glyph glyph-name="M" unicode="M" horiz-adv-x="854" 
d="M794 680v-680h-169v341l-151 -233v-1h-94v1l-152 235l1 -343h-169v680h126l241 -363l241 363h126z" />
    <glyph glyph-name="N" unicode="N" horiz-adv-x="745" 
d="M685 680v-680h-130l-326 373v-373h-169v680h129l328 -383v383h168z" />
    <glyph glyph-name="O" unicode="O" horiz-adv-x="808" 
d="M404 694q153 0 256.5 -102.5t103.5 -251.5t-103.5 -251.5t-256.5 -102.5t-256.5 102.5t-103.5 251.5t103.5 251.5t256.5 102.5zM404 143q81 0 135 57.5t54 139.5t-54 139.5t-135 57.5t-135 -57.5t-54 -139.5t54 -139.5t135 -57.5z" />
    <glyph glyph-name="P" unicode="P" horiz-adv-x="641" 
d="M60 680h274q133 0 210.5 -67t77.5 -182q0 -119 -81 -188.5t-220 -69.5h-92v-173h-169v680zM229 321h102q56 0 89.5 30t33.5 80q0 46 -33.5 73t-89.5 27h-102v-210z" />
    <glyph glyph-name="Q" unicode="Q" horiz-adv-x="808" 
d="M765 340q0 -158 -115 -263l107 -126l-120 -109l-134 157q-45 -13 -99 -13q-153 0 -256.5 102.5t-103.5 251.5t103.5 251.5t256.5 102.5q154 0 257.5 -102.5t103.5 -251.5zM215 340q0 -82 54 -139.5t135 -57.5t135 57.5t54 139.5t-54 139.5t-135 57.5t-135 -57.5
t-54 -139.5z" />
    <glyph glyph-name="R" unicode="R" horiz-adv-x="701" 
d="M334 197h-105v-197h-169v680h297q128 0 205 -64.5t77 -174.5q0 -70 -34 -125t-96 -86l175 -230h-203zM229 349h125q50 0 83 25.5t33 66.5q0 40 -33 65t-83 25h-125v-182z" />
    <glyph glyph-name="S" unicode="S" horiz-adv-x="676" 
d="M337 695q46 0 90.5 -10t89 -33.5t75 -70.5t36.5 -112h-170q-15 86 -110 86q-44 0 -70.5 -18t-26.5 -50q0 -27 19 -41t59 -23l95 -22q101 -22 153 -66.5t52 -127.5q0 -102 -77 -161.5t-205 -59.5q-124 0 -210 60.5t-97 179.5h169q8 -45 45.5 -70.5t97.5 -25.5
q47 0 71.5 16t24.5 44q0 44 -72 58l-112 25q-101 22 -149 70.5t-48 129.5q0 101 74.5 161.5t195.5 60.5z" />
    <glyph glyph-name="T" unicode="T" horiz-adv-x="648" 
d="M625 529h-217v-529h-168v529h-217v151h602v-151z" />
    <glyph glyph-name="U" unicode="U" horiz-adv-x="733" 
d="M683 680v-363q0 -157 -85 -244.5t-232 -87.5t-231.5 87.5t-84.5 244.5v363h170v-366q0 -78 39.5 -124.5t106.5 -46.5t107 46.5t40 124.5v366h170z" />
    <glyph glyph-name="V" unicode="V" horiz-adv-x="780" 
d="M770 680l-294 -684h-171l-295 684h186l194 -461l194 461h186z" />
    <glyph glyph-name="W" unicode="W" horiz-adv-x="1080" 
d="M1060 680l-219 -684h-164l-137 417l-137 -417h-163l-220 684h179l127 -422l144 422h140l144 -422l127 422h179z" />
    <glyph glyph-name="X" unicode="X" horiz-adv-x="696" 
d="M495 0l-146 209l-147 -209h-194l227 335l-224 345h203l134 -210l134 210h203l-224 -345l227 -335h-193z" />
    <glyph glyph-name="Y" unicode="Y" horiz-adv-x="719" 
d="M713 680l-268 -475v-205h-170v205l-269 475h187l166 -296l167 296h187z" />
    <glyph glyph-name="Z" unicode="Z" horiz-adv-x="658" 
d="M623 149v-149h-589v80l337 451h-320v149h566v-80l-323 -451h329z" />
    <glyph glyph-name="bracketleft" unicode="[" horiz-adv-x="383" 
d="M211 5h145v-152h-307v877h307v-151h-145v-574z" />
    <glyph glyph-name="backslash" unicode="\" horiz-adv-x="431" 
d="M167 730l252 -890h-155l-252 890h155z" />
    <glyph glyph-name="bracketright" unicode="]" horiz-adv-x="383" 
d="M27 579v151h307v-877h-307v152h145v574h-145z" />
    <glyph glyph-name="asciicircum" unicode="^" horiz-adv-x="438" 
d="M421 435h-141l-61 123l-61 -123h-141l139 245h126z" />
    <glyph glyph-name="underscore" unicode="_" horiz-adv-x="621" 
d="M27 -91h568v-137h-568v137z" />
    <glyph glyph-name="grave" unicode="`" 
d="M406 557h-151l-100 160h171z" />
    <glyph glyph-name="a" unicode="a" horiz-adv-x="624" 
d="M569 485v-485h-162v27q-58 -37 -133 -37q-99 0 -170 73t-71 180t71 180t170 73q75 0 133 -37v26h162zM307 123q60 0 100 45v151q-41 45 -100 45q-49 0 -82 -35t-33 -86t33 -85.5t82 -34.5z" />
    <glyph glyph-name="b" unicode="b" horiz-adv-x="624" 
d="M350 494q99 0 170 -72.5t71 -179.5q0 -108 -71 -181t-170 -73q-73 0 -132 36v-24h-163v710h163v-252q59 36 132 36zM318 121q49 0 81.5 35t32.5 86q0 50 -32.5 85t-81.5 35q-60 0 -100 -45v-152q39 -44 100 -44z" />
    <glyph glyph-name="c" unicode="c" horiz-adv-x="580" 
d="M299 126q37 0 63 20t32 53h153q-9 -93 -78.5 -151.5t-170.5 -58.5q-114 0 -189.5 71.5t-75.5 182.5q0 110 75.5 181.5t189.5 71.5q101 0 170.5 -58.5t78.5 -151.5h-153q-6 33 -32 53t-63 20q-51 0 -81 -32.5t-30 -83.5t30 -84t81 -33z" />
    <glyph glyph-name="d" unicode="d" horiz-adv-x="624" 
d="M569 710v-710h-162v25q-58 -37 -133 -37q-99 0 -170 73t-71 181q0 107 71 179.5t170 72.5q75 0 133 -37v253h162zM307 121q60 0 100 45v151q-41 45 -100 45q-49 0 -82 -35t-33 -85q0 -51 33 -86t82 -35z" />
    <glyph glyph-name="e" unicode="e" horiz-adv-x="573" 
d="M539 253q0 -39 -3 -58h-345q23 -78 109 -78q52 0 74 35h161q-18 -75 -82.5 -119t-154.5 -44q-118 0 -191.5 71t-73.5 183q0 111 71.5 182t187.5 71q107 0 177 -67.5t70 -175.5zM291 371q-81 0 -101 -81h197q-14 81 -96 81z" />
    <glyph glyph-name="f" unicode="f" horiz-adv-x="455" 
d="M284 485h171v-139h-171v-346h-162v346h-119v139h119v58q0 104 59.5 165.5t153.5 61.5q60 0 129 -18l-22 -135q-43 9 -74 9q-38 0 -61 -21.5t-23 -57.5v-62z" />
    <glyph glyph-name="g" unicode="g" horiz-adv-x="628" 
d="M572 485v-477q0 -112 -71.5 -176t-187.5 -64q-111 0 -184 58t-79 152h161q11 -73 101 -73q44 0 71 26t27 74v46q-58 -34 -132 -34q-99 0 -170 69t-71 167q0 109 70 179t171 70q73 0 132 -36v19h162zM310 146q60 0 100 45v134q-40 45 -100 45q-50 0 -82.5 -32.5
t-32.5 -84.5q0 -41 33.5 -74t81.5 -33z" />
    <glyph glyph-name="h" unicode="h" horiz-adv-x="606" 
d="M351 500q92 0 149 -60.5t57 -162.5v-277h-162v251q0 50 -23.5 76t-65.5 26q-46 0 -88 -48v-305h-163v710h163v-257q61 47 133 47z" />
    <glyph glyph-name="i" unicode="i" horiz-adv-x="279" 
d="M139 561q-40 0 -67.5 26t-27.5 65t27.5 65.5t67.5 26.5q39 0 67 -26.5t28 -65.5t-28 -65t-67 -26zM221 485v-485h-162v485h162z" />
    <glyph glyph-name="j" unicode="j" horiz-adv-x="276" 
d="M136 561q-39 0 -67 26t-28 65t28 65.5t67 26.5q40 0 67.5 -26.5t27.5 -65.5t-27.5 -65t-67.5 -26zM218 485v-446q0 -120 -51 -178.5t-188 -61.5l-14 135q52 5 71 23t19 61v467h163z" />
    <glyph glyph-name="k" unicode="k" horiz-adv-x="598" 
d="M285 168l-67 -72v-96h-163v710h163v-406l168 181h193l-184 -198l200 -287h-194z" />
    <glyph glyph-name="l" unicode="l" horiz-adv-x="273" 
d="M218 710v-710h-163v710h163z" />
    <glyph glyph-name="m" unicode="m" horiz-adv-x="912" 
d="M659 500q89 0 145 -60.5t56 -162.5v-277h-162v251q0 51 -23 76.5t-64 25.5t-74 -40q2 -24 2 -36v-277h-162v251q0 51 -23 76.5t-64 25.5q-40 0 -72 -42v-311h-163v485h163v-28q49 43 119 43q93 0 150 -66q73 66 172 66z" />
    <glyph glyph-name="n" unicode="n" horiz-adv-x="606" 
d="M351 500q92 0 149 -60.5t57 -162.5v-277h-162v251q0 50 -23.5 76t-65.5 26q-46 0 -88 -48v-305h-163v485h163v-32q61 47 133 47z" />
    <glyph glyph-name="o" unicode="o" horiz-adv-x="593" 
d="M297 496q114 0 188 -71.5t74 -181.5q0 -111 -74 -184.5t-188 -73.5q-115 0 -189.5 73.5t-74.5 184.5q0 110 74.5 181.5t189.5 71.5zM297 125q48 0 78.5 33.5t30.5 83.5q0 48 -30.5 81t-78.5 33q-49 0 -79.5 -33t-30.5 -81q0 -50 30.5 -83.5t79.5 -33.5z" />
    <glyph glyph-name="p" unicode="p" horiz-adv-x="624" 
d="M350 496q99 0 170 -73t71 -180t-71 -180t-170 -73q-73 0 -132 36v-251h-163v710h163v-25q59 36 132 36zM318 123q49 0 81.5 34.5t32.5 85.5t-32.5 86t-81.5 35q-60 0 -100 -45v-152q39 -44 100 -44z" />
    <glyph glyph-name="q" unicode="q" horiz-adv-x="624" 
d="M567 485v-710h-162v251q-59 -36 -132 -36q-100 0 -170.5 73t-70.5 180q0 108 70.5 180.5t170.5 72.5q73 0 132 -36v25h162zM305 123q61 0 100 44v152q-40 45 -100 45q-49 0 -82 -35t-33 -86t33 -85.5t82 -34.5z" />
    <glyph glyph-name="r" unicode="r" horiz-adv-x="410" 
d="M385 493v-154q-109 -4 -167 -61v-278h-163v485h163v-52q70 60 167 60z" />
    <glyph glyph-name="s" unicode="s" horiz-adv-x="521" 
d="M22 167l144 -1q10 -61 92 -61q32 0 51 9t19 25q0 27 -47 34l-98 17q-66 11 -104.5 48t-38.5 98q0 75 59.5 118.5t157.5 43.5q90 0 155.5 -40t71.5 -128h-145q-2 27 -24.5 40.5t-57.5 13.5q-29 0 -45 -10t-16 -25q0 -29 51 -38l90 -15q152 -28 152 -147q0 -80 -63.5 -122
t-164.5 -42t-166.5 45t-72.5 137z" />
    <glyph glyph-name="t" unicode="t" horiz-adv-x="470" 
d="M426 146l18 -137q-76 -24 -147 -24q-88 0 -141.5 59.5t-53.5 157.5v144h-95v139h95v165h162v-165h165v-139h-165v-139q0 -73 76 -73q24 0 86 12z" />
    <glyph glyph-name="u" unicode="u" horiz-adv-x="606" 
d="M551 485v-485h-162v32q-61 -47 -133 -47q-93 0 -150 60t-57 163v277h162v-252q0 -50 24 -76t65 -26q46 0 89 48v306h162z" />
    <glyph glyph-name="v" unicode="v" horiz-adv-x="594" 
d="M584 485l-210 -485h-154l-210 485h171l116 -280l116 280h171z" />
    <glyph glyph-name="w" unicode="w" horiz-adv-x="810" 
d="M796 485l-166 -485h-147l-78 252l-78 -252h-147l-167 485h170l75 -259l83 259h128l82 -258l76 258h169z" />
    <glyph glyph-name="x" unicode="x" horiz-adv-x="568" 
d="M389 241l170 -241h-178l-97 139l-97 -139h-179l170 242l-170 243h185l91 -128l90 128h185z" />
    <glyph glyph-name="y" unicode="y" horiz-adv-x="641" 
d="M624 485l-298 -709h-171l92 218l-230 491h171l140 -299l126 299h170z" />
    <glyph glyph-name="z" unicode="z" horiz-adv-x="512" 
d="M482 399l-220 -265h220v-134h-452v79l228 271h-224v135h448v-86z" />
    <glyph glyph-name="braceleft" unicode="{" horiz-adv-x="368" 
d="M268 538v-117q0 -56 -14.5 -84.5t-62.5 -43.5q48 -15 62.5 -42.5t14.5 -82.5v-117q0 -23 20 -38t53 -15v-151q-107 0 -171 52.5t-64 141.5v132q0 38 -15.5 47t-63.5 9v128q48 0 63.5 9t15.5 47v135q0 89 64 141.5t171 52.5v-151q-33 0 -53 -15t-20 -38z" />
    <glyph glyph-name="bar" unicode="|" horiz-adv-x="330" 
d="M237 730v-890h-144v890h144z" />
    <glyph glyph-name="braceright" unicode="}" horiz-adv-x="378" 
d="M110 421v117q0 23 -20 38t-53 15v151q107 0 171 -52.5t64 -141.5v-135q0 -38 15.5 -47t63.5 -9v-128q-48 0 -63.5 -9t-15.5 -47v-132q0 -89 -64 -141.5t-171 -52.5v151q33 0 53 15t20 38v117q0 55 14.5 82.5t62.5 42.5q-48 15 -62.5 43.5t-14.5 84.5z" />
    <glyph glyph-name="asciitilde" unicode="~" horiz-adv-x="473" 
d="M321 418h138q0 -60 -22.5 -101t-56.5 -56.5t-71.5 -14.5t-68.5 19l-42 26q-26 12 -36 3t-10 -31h-137q0 60 22.5 100.5t56 56t70.5 14.5t69 -19l43 -25q26 -12 35.5 -3t9.5 31z" />
    <glyph glyph-name="exclamdown" unicode="&#xa1;" horiz-adv-x="295" 
d="M147 499q36 0 62 -24t26 -60t-26 -60t-62 -24t-61.5 24t-25.5 60t25.5 60t61.5 24zM62 -192l14 458h142l14 -458h-170z" />
    <glyph glyph-name="cent" unicode="&#xa2;" horiz-adv-x="580" 
d="M298 126q37 0 63 20t32 53h153q-7 -76 -56 -130.5t-125 -71.5v-101h-131v100q-90 19 -145.5 86t-55.5 161t55.5 160.5t145.5 85.5v117h131v-118q76 -17 125 -71.5t56 -130.5h-153q-6 33 -32 53t-63 20q-51 0 -81 -32.5t-30 -83.5t30 -84t81 -33z" />
    <glyph glyph-name="sterling" unicode="&#xa3;" horiz-adv-x="617" 
d="M245 139h334v-139h-551v139h56v130h-56v126h56v55q0 110 70 176t185 66q108 0 176.5 -58t77.5 -158h-162q-7 36 -31 56t-61 20q-43 0 -68.5 -27.5t-25.5 -74.5v-55h182v-126h-182v-130z" />
    <glyph glyph-name="yen" unicode="&#xa5;" horiz-adv-x="719" 
d="M509 318h114v-105h-173l-5 -8v-34h178v-105h-178v-66h-170v66h-179v105h179v34l-5 8h-174v105h115l-205 362h187l166 -296l167 296h187z" />
    <glyph glyph-name="brokenbar" unicode="&#xa6;" horiz-adv-x="330" 
d="M237 336h-144v394h144v-394zM237 -160h-144v394h144v-394z" />
    <glyph glyph-name="section" unicode="&#xa7;" horiz-adv-x="561" 
d="M534 241q0 -86 -69 -130q29 -42 29 -98q0 -79 -60 -127t-155 -48q-100 0 -163.5 54t-70.5 146h163q2 -29 19.5 -46.5t48.5 -17.5q23 0 37.5 11.5t14.5 30.5q0 32 -40 50l-114 50q-79 34 -113 75.5t-34 96.5q0 85 70 129q-30 45 -30 99q0 79 59.5 126.5t155.5 47.5
q99 0 163 -53.5t71 -145.5h-163q-2 29 -19.5 46.5t-48.5 17.5q-23 0 -37.5 -11.5t-14.5 -30.5q0 -32 40 -50l114 -51q79 -34 113 -75.5t34 -95.5zM241 241l115 -50q27 12 27 38q0 17 -15 30.5t-48 27.5l-114 50q-28 -8 -28 -38t63 -58z" />
    <glyph glyph-name="dieresis" unicode="&#xa8;" 
d="M186 726q38 0 64.5 -25.5t26.5 -62.5t-26.5 -62.5t-64.5 -25.5t-65 25.5t-27 62.5t27 62.5t65 25.5zM415 726q38 0 64.5 -25.5t26.5 -62.5t-26.5 -62.5t-64.5 -25.5t-65 25.5t-27 62.5t27 62.5t65 25.5z" />
    <glyph glyph-name="copyright" unicode="&#xa9;" horiz-adv-x="815" 
d="M408 695q150 0 257 -102t107 -253t-107 -253t-257 -102t-257 102t-107 253t107 253t257 102zM407 75q110 0 190 77t80 188t-80 188t-190 77q-109 0 -189 -77t-80 -188t80 -188t189 -77zM409 404q-29 0 -47 -18.5t-18 -46.5q0 -27 18 -46t47 -19q20 0 35.5 10.5t21.5 26.5
h106q-8 -59 -53.5 -96t-109.5 -37q-73 0 -120.5 46t-47.5 115q0 70 47.5 116t120.5 46q65 0 110 -37t53 -97h-106q-13 37 -57 37z" />
    <glyph glyph-name="ordfeminine" unicode="&#xaa;" horiz-adv-x="363" 
d="M182 685q70 0 112.5 -37.5t42.5 -102.5v-194h-106v12q-38 -18 -80 -18q-61 0 -98 28t-37 77q0 45 34 70t95 25h86q0 54 -49 54q-20 0 -34 -10t-15 -27h-104q1 61 45.5 92t107.5 31zM166 429q34 0 65 19v33h-83q-29 0 -29 -21q0 -13 11.5 -22t35.5 -9z" />
    <glyph glyph-name="guillemotleft" unicode="&#xab;" horiz-adv-x="486" 
d="M261 413l-95 -161l95 -161h-144l-95 161l95 161h144zM464 413l-95 -161l95 -161h-144l-95 161l95 161h144z" />
    <glyph glyph-name="registered" unicode="&#xae;" horiz-adv-x="557" 
d="M278 692q106 0 180.5 -71.5t74.5 -177.5q0 -105 -75 -176.5t-180 -71.5t-180 71.5t-75 176.5q0 106 74.5 177.5t180.5 71.5zM278 265q73 0 126.5 52t53.5 126t-53.5 126.5t-126.5 52.5t-126 -52.5t-53 -126.5t53 -126t126 -52zM374 476q0 -39 -35 -59l45 -68h-70l-34 55
h-25v-55h-58v202h90q40 0 63.5 -20.5t23.5 -54.5zM255 453h31q28 0 28 24q0 23 -28 23h-31v-47z" />
    <glyph glyph-name="macron" unicode="&#xaf;" 
d="M443 694v-124h-286v124h286z" />
    <glyph glyph-name="degree" unicode="&#xb0;" horiz-adv-x="462" 
d="M231 695q76 0 127.5 -49t51.5 -125t-51.5 -125t-127.5 -49t-127.5 49t-51.5 125t51.5 125t127.5 49zM231 451q29 0 50 20.5t21 49.5q0 30 -21 50t-50 20t-50 -20t-21 -50q0 -29 21 -49.5t50 -20.5z" />
    <glyph glyph-name="plusminus" unicode="&#xb1;" horiz-adv-x="669" 
d="M572 324h-171v-123h-133v123h-171v128h171v124h133v-124h171v-128zM572 162v-128h-475v128h475z" />
    <glyph glyph-name="twosuperior" unicode="&#xb2;" horiz-adv-x="373" 
d="M345 375v-97h-311v57l139 156q28 32 37.5 45.5t9.5 26.5q0 14 -9.5 22.5t-25.5 8.5q-41 0 -43 -41h-110q1 66 40.5 105.5t112.5 39.5q72 0 114 -36.5t42 -89.5q0 -29 -16.5 -60t-59.5 -81l-48 -56h128z" />
    <glyph glyph-name="threesuperior" unicode="&#xb3;" horiz-adv-x="384" 
d="M304 487q49 -28 49 -85t-44.5 -94t-116.5 -37q-71 0 -113 36t-50 100h112q11 -39 53 -39q22 0 34.5 10t12.5 26q0 36 -57 36h-33v88h33q23 0 36.5 10t13.5 27q0 36 -42 36q-38 0 -42 -40h-112q4 64 44 100t108 36q69 0 110 -35.5t41 -93.5q0 -50 -37 -81z" />
    <glyph glyph-name="acute" unicode="&#xb4;" 
d="M469 717l-100 -160h-151l80 160h171z" />
    <glyph glyph-name="paragraph" unicode="&#xb6;" horiz-adv-x="770" 
d="M714 680v-840h-146v716h-71v-716h-147v363h-72q-110 0 -184 68.5t-74 177.5q0 103 73.5 167t184.5 64h436zM350 556h-72q-53 0 -85.5 -29.5t-32.5 -78.5q0 -52 32.5 -83.5t85.5 -31.5h72v223z" />
    <glyph glyph-name="periodcentered" unicode="&#xb7;" horiz-adv-x="235" 
d="M117 189q-37 0 -63.5 25t-26.5 62t26.5 62t63.5 25q38 0 65 -25t27 -62t-27 -62t-65 -25z" />
    <glyph glyph-name="cedilla" unicode="&#xb8;" 
d="M327 -228h-135l43 177h152z" />
    <glyph glyph-name="onesuperior" unicode="&#xb9;" horiz-adv-x="341" 
d="M336 378v-97h-311v97h102v192l-97 -27v103l141 46h67v-314h98z" />
    <glyph glyph-name="ordmasculine" unicode="&#xba;" horiz-adv-x="390" 
d="M195 687q77 0 126 -48.5t49 -121.5q0 -75 -49 -123.5t-126 -48.5q-76 0 -125.5 49t-49.5 123q0 73 49.5 121.5t125.5 48.5zM195 440q31 0 50.5 22t19.5 55q0 31 -19.5 52t-50.5 21q-32 0 -51.5 -21t-19.5 -52q0 -33 19.5 -55t51.5 -22z" />
    <glyph glyph-name="guillemotright" unicode="&#xbb;" horiz-adv-x="486" 
d="M261 252l-95 -161h-144l95 161l-95 161h144zM464 252l-95 -161h-144l95 161l-95 161h144z" />
    <glyph glyph-name="onequarter" unicode="&#xbc;" horiz-adv-x="953" 
d="M25 269v97h102v192l-97 -27v103l141 46h67v-314h98v-97h-311zM762 680l-454 -680h-108l454 680h108zM926 68h-48v-68h-114v68h-208v75l110 268h115l-92 -243h75v93h114v-93h48v-100z" />
    <glyph glyph-name="onehalf" unicode="&#xbd;" horiz-adv-x="933" 
d="M25 269v97h102v192l-97 -27v103l141 46h67v-314h98v-97h-311zM766 680l-454 -680h-108l454 680h108zM905 97v-97h-311v57l139 156q28 32 37.5 45.5t9.5 26.5q0 14 -9.5 22.5t-25.5 8.5q-41 0 -43 -41h-110q1 66 40.5 105.5t112.5 39.5q72 0 114 -36.5t42 -89.5
q0 -29 -16.5 -60t-59.5 -81l-48 -56h128z" />
    <glyph glyph-name="threequarters" unicode="&#xbe;" horiz-adv-x="939" 
d="M355 394q0 -57 -44.5 -94t-116.5 -37q-71 0 -113 36t-50 100h112q11 -39 53 -39q22 0 34.5 10t12.5 26q0 36 -57 36h-33v88h33q23 0 36.5 10t13.5 27q0 36 -42 36q-38 0 -42 -40h-112q4 64 44 100t108 36q69 0 110 -35.5t41 -93.5q0 -50 -37 -81q49 -28 49 -85zM749 680
l-454 -680h-109l454 680h109zM913 68h-48v-68h-114v68h-209v75l110 268h116l-92 -243h75v93h114v-93h48v-100z" />
    <glyph glyph-name="questiondown" unicode="&#xbf;" horiz-adv-x="539" 
d="M298 552q36 0 62 -24t26 -60t-26 -60t-62 -24t-62 24t-26 60t26 60t62 24zM356 322l10 -163h-82q-43 0 -71 -23.5t-28 -63.5q0 -38 24 -61.5t64 -23.5q39 0 63.5 21.5t28.5 57.5h157q-6 -99 -69 -156.5t-175 -57.5q-106 0 -174.5 61t-68.5 159q0 79 51.5 129.5
t141.5 62.5l5 58h123z" />
    <glyph glyph-name="Agrave" unicode="&#xc0;" horiz-adv-x="763" 
d="M319 750l-100 160h171l80 -160h-151zM525 117h-288l-45 -117h-180l289 684h161l288 -684h-179zM469 261l-88 226l-88 -226h176z" />
    <glyph glyph-name="Aacute" unicode="&#xc1;" horiz-adv-x="763" 
d="M458 750h-151l80 160h171zM525 117h-288l-45 -117h-180l289 684h161l288 -684h-179zM469 261l-88 226l-88 -226h176z" />
    <glyph glyph-name="Acircumflex" unicode="&#xc2;" horiz-adv-x="763" 
d="M329 750h-141l117 164h153l116 -164h-141l-51 66zM525 117h-288l-45 -117h-180l289 684h161l288 -684h-179zM469 261l-88 226l-88 -226h176z" />
    <glyph glyph-name="Atilde" unicode="&#xc3;" horiz-adv-x="763" 
d="M389 760l-38 22q-23 11 -31.5 3t-8.5 -27h-119q0 52 19.5 87t49 48.5t61.5 12.5t59 -16l38 -22q23 -11 31.5 -3t8.5 27h119q0 -52 -19.5 -87.5t-49 -49t-61.5 -12.5t-59 17zM525 117h-288l-45 -117h-180l289 684h161l288 -684h-179zM469 261l-88 226l-88 -226h176z" />
    <glyph glyph-name="Adieresis" unicode="&#xc4;" horiz-adv-x="763" 
d="M267 743q-38 0 -65 25.5t-27 62.5t27 62.5t65 25.5t64.5 -25.5t26.5 -62.5t-26.5 -62.5t-64.5 -25.5zM496 743q-38 0 -65 25.5t-27 62.5t27 62.5t65 25.5t64.5 -25.5t26.5 -62.5t-26.5 -62.5t-64.5 -25.5zM525 117h-288l-45 -117h-180l289 684h161l288 -684h-179z
M469 261l-88 226l-88 -226h176z" />
    <glyph glyph-name="Aring" unicode="&#xc5;" horiz-adv-x="763" 
d="M381 748q-55 0 -89.5 32t-34.5 84t34.5 83.5t89.5 31.5t89.5 -31.5t34.5 -83.5t-34.5 -84t-89.5 -32zM381 906q-20 0 -32 -11.5t-12 -30.5q0 -20 12 -32t32 -12t32 12t12 32q0 19 -12 30.5t-32 11.5zM525 117h-288l-45 -117h-180l289 684h161l288 -684h-179zM469 261
l-88 226l-88 -226h176z" />
    <glyph glyph-name="AE" unicode="&#xc6;" horiz-adv-x="1116" 
d="M734 533v-124h302v-144h-302v-118h345v-147h-514v117h-265l-84 -117h-204l505 680h562v-147h-345zM565 261v223l-161 -223h161z" />
    <glyph glyph-name="Ccedilla" unicode="&#xc7;" horiz-adv-x="789" 
d="M403 144q67 0 111 36.5t58 101.5h173q-16 -133 -109 -214.5t-232 -81.5q-154 0 -257 100.5t-103 253.5t103 253.5t257 100.5q139 0 232 -81.5t109 -214.5h-173q-14 65 -58 101.5t-111 36.5q-83 0 -135.5 -55.5t-52.5 -140.5t52.5 -140.5t135.5 -55.5zM326 -51h152
l-60 -177h-135z" />
    <glyph glyph-name="Egrave" unicode="&#xc8;" horiz-adv-x="610" 
d="M249 750l-100 160h171l80 -160h-151zM229 533v-124h301v-144h-301v-118h345v-147h-514v680h514v-147h-345z" />
    <glyph glyph-name="Eacute" unicode="&#xc9;" horiz-adv-x="610" 
d="M389 750h-151l80 160h171zM229 533v-124h301v-144h-301v-118h345v-147h-514v680h514v-147h-345z" />
    <glyph glyph-name="Ecircumflex" unicode="&#xca;" horiz-adv-x="610" 
d="M259 750h-141l117 164h153l116 -164h-141l-51 66zM229 533v-124h301v-144h-301v-118h345v-147h-514v680h514v-147h-345z" />
    <glyph glyph-name="Edieresis" unicode="&#xcb;" horiz-adv-x="610" 
d="M197 743q-38 0 -65 25.5t-27 62.5t27 62.5t65 25.5t64.5 -25.5t26.5 -62.5t-26.5 -62.5t-64.5 -25.5zM426 743q-38 0 -65 25.5t-27 62.5t27 62.5t65 25.5t64.5 -25.5t26.5 -62.5t-26.5 -62.5t-64.5 -25.5zM229 533v-124h301v-144h-301v-118h345v-147h-514v680h514v-147
h-345z" />
    <glyph glyph-name="Igrave" unicode="&#xcc;" horiz-adv-x="289" 
d="M233 750h-151l-100 160h171zM229 680v-680h-169v680h169z" />
    <glyph glyph-name="Iacute" unicode="&#xcd;" horiz-adv-x="289" 
d="M321 910l-100 -160h-151l80 160h171zM229 680v-680h-169v680h169z" />
    <glyph glyph-name="Icircumflex" unicode="&#xce;" horiz-adv-x="289" 
d="M145 816l-53 -66h-141l117 164h153l116 -164h-141zM229 680v-680h-169v680h169z" />
    <glyph glyph-name="Idieresis" unicode="&#xcf;" horiz-adv-x="289" 
d="M30 919q38 0 64.5 -25.5t26.5 -62.5t-26.5 -62.5t-64.5 -25.5t-65 25.5t-27 62.5t27 62.5t65 25.5zM259 919q38 0 64.5 -25.5t26.5 -62.5t-26.5 -62.5t-64.5 -25.5t-65 25.5t-27 62.5t27 62.5t65 25.5zM229 680v-680h-169v680h169z" />
    <glyph glyph-name="Eth" unicode="&#xd0;" horiz-adv-x="737" 
d="M60 680h274q160 0 263.5 -94.5t103.5 -243.5q0 -151 -103.5 -246.5t-263.5 -95.5h-274v262h-53v146h53v272zM229 152h105q83 0 139 54.5t56 135.5q0 79 -56 132.5t-139 53.5h-105v-120h112v-146h-112v-110z" />
    <glyph glyph-name="Ntilde" unicode="&#xd1;" horiz-adv-x="745" 
d="M380 760l-38 22q-22 11 -31 3t-9 -27h-119q0 52 19.5 87t49 48.5t61.5 12.5t59 -16l38 -22q22 -11 31 -3t9 27h119q0 -52 -19.5 -87.5t-49 -49t-61.5 -12.5t-59 17zM686 680v-680h-131l-326 373v-373h-169v680h129l328 -383v383h169z" />
    <glyph glyph-name="Ograve" unicode="&#xd2;" horiz-adv-x="808" 
d="M492 750h-151l-100 160h171zM404 694q154 0 257.5 -102.5t103.5 -251.5t-103.5 -251.5t-257.5 -102.5q-153 0 -256.5 102.5t-103.5 251.5t103.5 251.5t256.5 102.5zM404 143q81 0 135 57.5t54 139.5t-54 139.5t-135 57.5t-135 -57.5t-54 -139.5t54 -139.5t135 -57.5z" />
    <glyph glyph-name="Oacute" unicode="&#xd3;" horiz-adv-x="808" 
d="M581 910l-100 -160h-151l80 160h171zM404 694q154 0 257.5 -102.5t103.5 -251.5t-103.5 -251.5t-257.5 -102.5q-153 0 -256.5 102.5t-103.5 251.5t103.5 251.5t256.5 102.5zM404 143q81 0 135 57.5t54 139.5t-54 139.5t-135 57.5t-135 -57.5t-54 -139.5t54 -139.5
t135 -57.5z" />
    <glyph glyph-name="Ocircumflex" unicode="&#xd4;" horiz-adv-x="808" 
d="M404 816l-53 -66h-141l117 164h153l116 -164h-141zM404 694q154 0 257.5 -102.5t103.5 -251.5t-103.5 -251.5t-257.5 -102.5q-153 0 -256.5 102.5t-103.5 251.5t103.5 251.5t256.5 102.5zM404 143q81 0 135 57.5t54 139.5t-54 139.5t-135 57.5t-135 -57.5t-54 -139.5
t54 -139.5t135 -57.5z" />
    <glyph glyph-name="Otilde" unicode="&#xd5;" horiz-adv-x="808" 
d="M481 892h119q0 -52 -19.5 -87.5t-49 -49t-61.5 -12.5t-59 17l-38 22q-23 11 -31.5 3t-8.5 -27h-119q0 52 19.5 87t49 48.5t61.5 12.5t59 -16l38 -22q23 -11 31.5 -3t8.5 27zM404 694q154 0 257.5 -102.5t103.5 -251.5t-103.5 -251.5t-257.5 -102.5q-153 0 -256.5 102.5
t-103.5 251.5t103.5 251.5t256.5 102.5zM404 143q81 0 135 57.5t54 139.5t-54 139.5t-135 57.5t-135 -57.5t-54 -139.5t54 -139.5t135 -57.5z" />
    <glyph glyph-name="Odieresis" unicode="&#xd6;" horiz-adv-x="808" 
d="M289 919q38 0 64.5 -25.5t26.5 -62.5t-26.5 -62.5t-64.5 -25.5t-65 25.5t-27 62.5t27 62.5t65 25.5zM518 919q38 0 64.5 -25.5t26.5 -62.5t-26.5 -62.5t-64.5 -25.5t-65 25.5t-27 62.5t27 62.5t65 25.5zM404 694q154 0 257.5 -102.5t103.5 -251.5t-103.5 -251.5
t-257.5 -102.5q-153 0 -256.5 102.5t-103.5 251.5t103.5 251.5t256.5 102.5zM404 143q81 0 135 57.5t54 139.5t-54 139.5t-135 57.5t-135 -57.5t-54 -139.5t54 -139.5t135 -57.5z" />
    <glyph glyph-name="multiply" unicode="&#xd7;" horiz-adv-x="654" 
d="M557 183l-91 -91l-139 139l-139 -139l-91 91l139 139l-139 139l91 91l139 -139l139 139l91 -91l-139 -139z" />
    <glyph glyph-name="Oslash" unicode="&#xd8;" horiz-adv-x="808" 
d="M712 632l-42 -50q95 -100 95 -242q0 -149 -103.5 -251.5t-257.5 -102.5q-103 0 -191 51l-48 -57l-78 65l48 57q-91 99 -91 238q0 149 103.5 251.5t256.5 102.5q102 0 187 -49l43 52zM215 340q0 -58 30 -107l240 286q-36 18 -81 18q-81 0 -135 -57.5t-54 -139.5zM404 143
q81 0 135 57.5t54 139.5q0 61 -32 112l-242 -289q38 -20 85 -20z" />
    <glyph glyph-name="Ugrave" unicode="&#xd9;" horiz-adv-x="733" 
d="M455 750h-151l-100 160h171zM683 680v-363q0 -157 -85 -244.5t-232 -87.5t-231.5 87.5t-84.5 244.5v363h170v-366q0 -78 39.5 -124.5t106.5 -46.5t107 46.5t40 124.5v366h170z" />
    <glyph glyph-name="Uacute" unicode="&#xda;" horiz-adv-x="733" 
d="M544 910l-100 -160h-151l80 160h171zM683 680v-363q0 -157 -85 -244.5t-232 -87.5t-231.5 87.5t-84.5 244.5v363h170v-366q0 -78 39.5 -124.5t106.5 -46.5t107 46.5t40 124.5v366h170z" />
    <glyph glyph-name="Ucircumflex" unicode="&#xdb;" horiz-adv-x="733" 
d="M367 816l-53 -66h-141l117 164h153l116 -164h-141zM683 680v-363q0 -157 -85 -244.5t-232 -87.5t-231.5 87.5t-84.5 244.5v363h170v-366q0 -78 39.5 -124.5t106.5 -46.5t107 46.5t40 124.5v366h170z" />
    <glyph glyph-name="Udieresis" unicode="&#xdc;" horiz-adv-x="733" 
d="M252 919q38 0 64.5 -25.5t26.5 -62.5t-26.5 -62.5t-64.5 -25.5t-65 25.5t-27 62.5t27 62.5t65 25.5zM481 919q38 0 64.5 -25.5t26.5 -62.5t-26.5 -62.5t-64.5 -25.5t-65 25.5t-27 62.5t27 62.5t65 25.5zM683 680v-363q0 -157 -85 -244.5t-232 -87.5t-231.5 87.5
t-84.5 244.5v363h170v-366q0 -78 39.5 -124.5t106.5 -46.5t107 46.5t40 124.5v366h170z" />
    <glyph glyph-name="Yacute" unicode="&#xdd;" horiz-adv-x="719" 
d="M437 750h-151l80 160h171zM713 680l-268 -475v-205h-170v205l-269 475h187l166 -296l167 296h187z" />
    <glyph glyph-name="Thorn" unicode="&#xde;" horiz-adv-x="641" 
d="M229 594h105q133 0 210.5 -67t77.5 -182q0 -119 -81 -188.5t-220 -69.5h-92v-87h-169v680h169v-86zM229 235h102q56 0 89.5 30t33.5 80q0 46 -33.5 73t-89.5 27h-102v-210z" />
    <glyph glyph-name="germandbls" unicode="&#xdf;" horiz-adv-x="685" 
d="M623 393l-125 -162q76 -19 120.5 -72t44.5 -131q0 -105 -71.5 -171.5t-191.5 -66.5q-89 0 -168 25v139q83 -24 150 -24q56 0 85.5 27t29.5 68q0 38 -26 61t-71 23h-105v71l119 161h-197v-341h-162v533q0 105 66 168t174 63v-153q-35 0 -56.5 -21t-21.5 -57v-48h406v-92z
" />
    <glyph glyph-name="agrave" unicode="&#xe0;" horiz-adv-x="624" 
d="M254 557l-100 160h171l80 -160h-151zM569 485v-485h-162v27q-58 -37 -133 -37q-99 0 -170 73t-71 180t71 180t170 73q75 0 133 -37v26h162zM306 123q62 0 101 45v150q-39 46 -101 46q-49 0 -81.5 -35t-32.5 -86t32.5 -85.5t81.5 -34.5z" />
    <glyph glyph-name="aacute" unicode="&#xe1;" horiz-adv-x="624" 
d="M401 557h-151l80 160h171zM569 485v-485h-162v27q-58 -37 -133 -37q-99 0 -170 73t-71 180t71 180t170 73q75 0 133 -37v26h162zM306 123q62 0 101 45v150q-39 46 -101 46q-49 0 -81.5 -35t-32.5 -86t32.5 -85.5t81.5 -34.5z" />
    <glyph glyph-name="acircumflex" unicode="&#xe2;" horiz-adv-x="624" 
d="M271 550h-141l117 164h153l116 -164h-141l-51 66zM569 485v-485h-162v27q-58 -37 -133 -37q-99 0 -170 73t-71 180t71 180t170 73q75 0 133 -37v26h162zM306 123q62 0 101 45v150q-39 46 -101 46q-49 0 -81.5 -35t-32.5 -86t32.5 -85.5t81.5 -34.5z" />
    <glyph glyph-name="atilde" unicode="&#xe3;" horiz-adv-x="624" 
d="M331 573l-38 22q-23 11 -31.5 3t-8.5 -27h-119q0 52 19.5 87t49 48.5t61.5 12.5t59 -16l38 -22q23 -11 31.5 -3t8.5 27h119q0 -52 -19.5 -87.5t-49 -49t-61.5 -12.5t-59 17zM569 485v-485h-162v27q-58 -37 -133 -37q-99 0 -170 73t-71 180t71 180t170 73q75 0 133 -37v26
h162zM306 123q62 0 101 45v150q-39 46 -101 46q-49 0 -81.5 -35t-32.5 -86t32.5 -85.5t81.5 -34.5z" />
    <glyph glyph-name="adieresis" unicode="&#xe4;" horiz-adv-x="624" 
d="M210 550q-38 0 -65 25.5t-27 62.5t27 62.5t65 25.5t64.5 -25.5t26.5 -62.5t-26.5 -62.5t-64.5 -25.5zM439 550q-38 0 -65 25.5t-27 62.5t27 62.5t65 25.5t64.5 -25.5t26.5 -62.5t-26.5 -62.5t-64.5 -25.5zM569 485v-485h-162v27q-58 -37 -133 -37q-99 0 -170 73t-71 180
t71 180t170 73q75 0 133 -37v26h162zM306 123q62 0 101 45v150q-39 46 -101 46q-49 0 -81.5 -35t-32.5 -86t32.5 -85.5t81.5 -34.5z" />
    <glyph glyph-name="aring" unicode="&#xe5;" horiz-adv-x="624" 
d="M324 548q-55 0 -89.5 32t-34.5 84t34.5 83.5t89.5 31.5t89.5 -31.5t34.5 -83.5t-34.5 -84t-89.5 -32zM324 706q-20 0 -32 -11.5t-12 -30.5q0 -20 12 -32t32 -12t32 12t12 32q0 19 -12 30.5t-32 11.5zM569 485v-485h-162v27q-58 -37 -133 -37q-99 0 -170 73t-71 180
t71 180t170 73q75 0 133 -37v26h162zM306 123q62 0 101 45v150q-39 46 -101 46q-49 0 -81.5 -35t-32.5 -86t32.5 -85.5t81.5 -34.5z" />
    <glyph glyph-name="ae" unicode="&#xe6;" horiz-adv-x="893" 
d="M859 253q0 -39 -3 -58h-345q23 -78 109 -78q52 0 74 35h161q-18 -75 -82.5 -119t-154.5 -44q-123 0 -197 76q-88 -74 -190 -74q-92 0 -147.5 41.5t-55.5 114.5q0 68 51.5 105.5t142.5 37.5h134q0 83 -77 83q-31 0 -51.5 -15t-24.5 -41h-154q4 90 70 136.5t165 46.5
q101 0 161 -57q69 53 167 53q107 0 177 -67.5t70 -175.5zM611 371q-81 0 -101 -81h197q-14 81 -96 81zM253 114q55 0 115 39q-8 21 -11 42h-130q-21 0 -34 -9t-13 -24q0 -19 18.5 -33.5t54.5 -14.5z" />
    <glyph glyph-name="ccedilla" unicode="&#xe7;" horiz-adv-x="580" 
d="M298 126q37 0 63 20t32 53h153q-8 -93 -77.5 -151.5t-170.5 -58.5q-115 0 -190 71.5t-75 182.5q0 110 75 181.5t190 71.5q101 0 170.5 -58.5t77.5 -151.5h-153q-6 33 -32 53t-63 20q-51 0 -81 -32.5t-30 -83.5t30 -84t81 -33zM221 -51h152l-60 -177h-135z" />
    <glyph glyph-name="egrave" unicode="&#xe8;" horiz-adv-x="573" 
d="M222 557l-100 160h171l80 -160h-151zM539 253q0 -37 -3 -55l1 -3h-346q23 -78 109 -78q52 0 74 35h160q-17 -75 -81.5 -119t-154.5 -44q-118 0 -191.5 71t-73.5 183q0 111 71.5 182t186.5 71q107 0 177.5 -67.5t70.5 -175.5zM291 371q-82 0 -102 -81h198q-14 81 -96 81z
" />
    <glyph glyph-name="eacute" unicode="&#xe9;" horiz-adv-x="573" 
d="M369 557h-151l80 160h171zM539 253q0 -37 -3 -55l1 -3h-346q23 -78 109 -78q52 0 74 35h160q-17 -75 -81.5 -119t-154.5 -44q-118 0 -191.5 71t-73.5 183q0 111 71.5 182t186.5 71q107 0 177.5 -67.5t70.5 -175.5zM291 371q-82 0 -102 -81h198q-14 81 -96 81z" />
    <glyph glyph-name="ecircumflex" unicode="&#xea;" horiz-adv-x="573" 
d="M239 550h-141l117 164h153l116 -164h-141l-51 66zM539 253q0 -37 -3 -55l1 -3h-346q23 -78 109 -78q52 0 74 35h160q-17 -75 -81.5 -119t-154.5 -44q-118 0 -191.5 71t-73.5 183q0 111 71.5 182t186.5 71q107 0 177.5 -67.5t70.5 -175.5zM291 371q-82 0 -102 -81h198
q-14 81 -96 81z" />
    <glyph glyph-name="edieresis" unicode="&#xeb;" horiz-adv-x="573" 
d="M178 550q-38 0 -65 25.5t-27 62.5t27 62.5t65 25.5t64.5 -25.5t26.5 -62.5t-26.5 -62.5t-64.5 -25.5zM407 550q-38 0 -65 25.5t-27 62.5t27 62.5t65 25.5t64.5 -25.5t26.5 -62.5t-26.5 -62.5t-64.5 -25.5zM539 253q0 -37 -3 -55l1 -3h-346q23 -78 109 -78q52 0 74 35h160
q-17 -75 -81.5 -119t-154.5 -44q-118 0 -191.5 71t-73.5 183q0 111 71.5 182t186.5 71q107 0 177.5 -67.5t70.5 -175.5zM291 371q-82 0 -102 -81h198q-14 81 -96 81z" />
    <glyph glyph-name="igrave" unicode="&#xec;" horiz-adv-x="279" 
d="M221 557h-151l-100 160h171zM221 485v-485h-162v485h162z" />
    <glyph glyph-name="iacute" unicode="&#xed;" horiz-adv-x="279" 
d="M317 717l-100 -160h-151l80 160h171zM221 485v-485h-162v485h162z" />
    <glyph glyph-name="icircumflex" unicode="&#xee;" horiz-adv-x="279" 
d="M140 616l-53 -66h-141l117 164h153l116 -164h-141zM221 485v-485h-162v485h162z" />
    <glyph glyph-name="idieresis" unicode="&#xef;" horiz-adv-x="279" 
d="M26 726q38 0 64.5 -25.5t26.5 -62.5t-26.5 -62.5t-64.5 -25.5t-65 25.5t-27 62.5t27 62.5t65 25.5zM255 726q38 0 64.5 -25.5t26.5 -62.5t-26.5 -62.5t-64.5 -25.5t-65 25.5t-27 62.5t27 62.5t65 25.5zM221 485v-485h-162v485h162z" />
    <glyph glyph-name="eth" unicode="&#xf0;" horiz-adv-x="593" 
d="M468 621l-54 -20q145 -152 145 -358q0 -111 -74 -184.5t-188 -73.5q-115 0 -189.5 73.5t-74.5 184.5q0 110 74.5 181.5t189.5 71.5q21 0 40 -3q-25 33 -57 60l-148 -53l-34 88l86 31q-33 21 -86 46l140 61q47 -22 93 -53l103 37zM297 125q48 0 78.5 33.5t30.5 83.5
q0 48 -30.5 81t-78.5 33q-49 0 -79.5 -33t-30.5 -81q0 -50 30.5 -83.5t79.5 -33.5z" />
    <glyph glyph-name="ntilde" unicode="&#xf1;" horiz-adv-x="606" 
d="M311 573l-38 22q-23 11 -31.5 3t-8.5 -27h-119q0 52 19.5 87t49 48.5t61.5 12.5t59 -16l38 -22q23 -11 31.5 -3t8.5 27h119q0 -52 -19.5 -87.5t-49 -49t-61.5 -12.5t-59 17zM351 500q93 0 150 -60t57 -163v-277h-163v251q0 50 -23.5 76t-64.5 26q-47 0 -90 -49v-304h-162
v485h162v-33q60 48 134 48z" />
    <glyph glyph-name="ograve" unicode="&#xf2;" horiz-adv-x="593" 
d="M378 557h-151l-100 160h171zM296 496q115 0 189 -71.5t74 -181.5q0 -111 -74.5 -184.5t-188.5 -73.5t-188.5 73.5t-74.5 184.5q0 110 74 181.5t189 71.5zM297 125q48 0 78.5 33.5t30.5 83.5q0 48 -30.5 81t-78.5 33q-49 0 -79.5 -33t-30.5 -81q0 -50 30.5 -83.5
t79.5 -33.5z" />
    <glyph glyph-name="oacute" unicode="&#xf3;" horiz-adv-x="593" 
d="M474 717l-100 -160h-151l80 160h171zM296 496q115 0 189 -71.5t74 -181.5q0 -111 -74.5 -184.5t-188.5 -73.5t-188.5 73.5t-74.5 184.5q0 110 74 181.5t189 71.5zM297 125q48 0 78.5 33.5t30.5 83.5q0 48 -30.5 81t-78.5 33q-49 0 -79.5 -33t-30.5 -81q0 -50 30.5 -83.5
t79.5 -33.5z" />
    <glyph glyph-name="ocircumflex" unicode="&#xf4;" horiz-adv-x="593" 
d="M297 616l-53 -66h-141l117 164h153l116 -164h-141zM296 496q115 0 189 -71.5t74 -181.5q0 -111 -74.5 -184.5t-188.5 -73.5t-188.5 73.5t-74.5 184.5q0 110 74 181.5t189 71.5zM297 125q48 0 78.5 33.5t30.5 83.5q0 48 -30.5 81t-78.5 33q-49 0 -79.5 -33t-30.5 -81
q0 -50 30.5 -83.5t79.5 -33.5z" />
    <glyph glyph-name="otilde" unicode="&#xf5;" horiz-adv-x="593" 
d="M374 705h119q0 -52 -19.5 -87.5t-49 -49t-61.5 -12.5t-59 17l-38 22q-22 11 -31 3t-9 -27h-119q0 52 19.5 87t49 48.5t61.5 12.5t59 -16l38 -22q22 -11 31 -3t9 27zM296 496q115 0 189 -71.5t74 -181.5q0 -111 -74.5 -184.5t-188.5 -73.5t-188.5 73.5t-74.5 184.5
q0 110 74 181.5t189 71.5zM297 125q48 0 78.5 33.5t30.5 83.5q0 48 -30.5 81t-78.5 33q-49 0 -79.5 -33t-30.5 -81q0 -50 30.5 -83.5t79.5 -33.5z" />
    <glyph glyph-name="odieresis" unicode="&#xf6;" horiz-adv-x="593" 
d="M183 726q38 0 64.5 -25.5t26.5 -62.5t-26.5 -62.5t-64.5 -25.5t-65 25.5t-27 62.5t27 62.5t65 25.5zM412 726q38 0 64.5 -25.5t26.5 -62.5t-26.5 -62.5t-64.5 -25.5t-65 25.5t-27 62.5t27 62.5t65 25.5zM296 496q115 0 189 -71.5t74 -181.5q0 -111 -74.5 -184.5
t-188.5 -73.5t-188.5 73.5t-74.5 184.5q0 110 74 181.5t189 71.5zM297 125q48 0 78.5 33.5t30.5 83.5q0 48 -30.5 81t-78.5 33q-49 0 -79.5 -33t-30.5 -81q0 -50 30.5 -83.5t79.5 -33.5z" />
    <glyph glyph-name="divide" unicode="&#xf7;" horiz-adv-x="682" 
d="M341 447q-35 0 -59.5 23.5t-24.5 57.5t24.5 57.5t59.5 23.5t60 -23.5t25 -57.5t-25 -57.5t-60 -23.5zM97 392h488v-128h-488v128zM341 52q-35 0 -59.5 23.5t-24.5 57.5t24.5 57.5t59.5 23.5t60 -23.5t25 -57.5t-25 -57.5t-60 -23.5z" />
    <glyph glyph-name="oslash" unicode="&#xf8;" horiz-adv-x="593" 
d="M520 447l-26 -32q65 -70 65 -172q0 -111 -74.5 -184.5t-188.5 -73.5q-76 0 -136 34l-30 -36l-62 51l29 35q-64 72 -64 174q0 110 74 181.5t189 71.5q75 0 134 -32l28 34zM187 242q0 -28 11 -53l136 161q-18 6 -37 6q-49 0 -79.5 -33t-30.5 -81zM297 125q48 0 78.5 33.5
t30.5 83.5q0 30 -12 55l-138 -164q19 -8 41 -8z" />
    <glyph glyph-name="ugrave" unicode="&#xf9;" horiz-adv-x="606" 
d="M234 557l-100 160h171l80 -160h-151zM551 485v-485h-162v32q-61 -47 -133 -47q-93 0 -150 60t-57 163v277h162v-252q0 -50 24 -76t65 -26q46 0 89 48v306h162z" />
    <glyph glyph-name="uacute" unicode="&#xfa;" horiz-adv-x="606" 
d="M381 557h-151l80 160h171zM551 485v-485h-162v32q-61 -47 -133 -47q-93 0 -150 60t-57 163v277h162v-252q0 -50 24 -76t65 -26q46 0 89 48v306h162z" />
    <glyph glyph-name="ucircumflex" unicode="&#xfb;" horiz-adv-x="606" 
d="M251 550h-141l117 164h153l116 -164h-141l-51 66zM551 485v-485h-162v32q-61 -47 -133 -47q-93 0 -150 60t-57 163v277h162v-252q0 -50 24 -76t65 -26q46 0 89 48v306h162z" />
    <glyph glyph-name="udieresis" unicode="&#xfc;" horiz-adv-x="606" 
d="M190 550q-38 0 -65 25.5t-27 62.5t27 62.5t65 25.5t64.5 -25.5t26.5 -62.5t-26.5 -62.5t-64.5 -25.5zM419 550q-38 0 -65 25.5t-27 62.5t27 62.5t65 25.5t64.5 -25.5t26.5 -62.5t-26.5 -62.5t-64.5 -25.5zM551 485v-485h-162v32q-61 -47 -133 -47q-93 0 -150 60t-57 163
v277h162v-252q0 -50 24 -76t65 -26q46 0 89 48v306h162z" />
    <glyph glyph-name="yacute" unicode="&#xfd;" horiz-adv-x="641" 
d="M400 557h-151l80 160h171zM624 485l-299 -709h-170l92 218l-230 491h172l139 -299l126 299h170z" />
    <glyph glyph-name="thorn" unicode="&#xfe;" horiz-adv-x="618" 
d="M350 496q99 0 170 -73t71 -180t-71 -180t-170 -73q-73 0 -132 36v-251h-163v905h163v-220q59 36 132 36zM318 123q49 0 81.5 34.5t32.5 85.5t-32.5 86t-81.5 35q-60 0 -100 -45v-152q39 -44 100 -44z" />
    <glyph glyph-name="ydieresis" unicode="&#xff;" horiz-adv-x="641" 
d="M209 550q-38 0 -65 25.5t-27 62.5t27 62.5t65 25.5t64.5 -25.5t26.5 -62.5t-26.5 -62.5t-64.5 -25.5zM438 550q-38 0 -65 25.5t-27 62.5t27 62.5t65 25.5t64.5 -25.5t26.5 -62.5t-26.5 -62.5t-64.5 -25.5zM624 485l-299 -709h-170l92 218l-230 491h172l139 -299l126 299
h170z" />
    <glyph glyph-name="Amacron" unicode="&#x100;" horiz-adv-x="763" 
d="M524 751h-286v124h286v-124zM525 117h-288l-45 -117h-180l289 684h161l288 -684h-179zM469 261l-88 226l-88 -226h176z" />
    <glyph glyph-name="amacron" unicode="&#x101;" horiz-adv-x="624" 
d="M467 570h-286v124h286v-124zM569 485v-485h-162v27q-58 -37 -133 -37q-99 0 -170 73t-71 180t71 180t170 73q75 0 133 -37v26h162zM306 123q62 0 101 45v150q-39 46 -101 46q-49 0 -81.5 -35t-32.5 -86t32.5 -85.5t81.5 -34.5z" />
    <glyph glyph-name="Abreve" unicode="&#x102;" horiz-adv-x="763" 
d="M381 748q-79 0 -127 44.5t-48 124.5h115q0 -32 16.5 -48.5t43.5 -16.5q26 0 43 16.5t17 48.5h115q0 -80 -48 -124.5t-127 -44.5zM525 117h-288l-45 -117h-180l289 684h161l288 -684h-179zM469 261l-88 226l-88 -226h176z" />
    <glyph glyph-name="abreve" unicode="&#x103;" horiz-adv-x="624" 
d="M324 544q-79 0 -127 44.5t-48 124.5h115q0 -32 16.5 -48.5t43.5 -16.5q26 0 43 16.5t17 48.5h115q0 -80 -48 -124.5t-127 -44.5zM569 485v-485h-162v27q-58 -37 -133 -37q-99 0 -170 73t-71 180t71 180t170 73q75 0 133 -37v26h162zM306 123q62 0 101 45v150
q-39 46 -101 46q-49 0 -81.5 -35t-32.5 -86t32.5 -85.5t81.5 -34.5z" />
    <glyph glyph-name="Aogonek" unicode="&#x104;" horiz-adv-x="763" 
d="M746 -53l15 -120q-28 -14 -81 -14q-72 0 -118 34t-46 93q0 47 46 84l-37 93h-288l-45 -117h-180l289 684h161l288 -684h-71q-30 -11 -30 -32q0 -28 50 -28q20 0 47 7zM469 261l-88 226l-88 -226h176z" />
    <glyph glyph-name="aogonek" unicode="&#x105;" horiz-adv-x="624" 
d="M591 -56l15 -120q-28 -14 -81 -14q-72 0 -118 34t-46 93q0 48 46 84v6q-58 -37 -133 -37q-99 0 -170 73t-71 180t71 180t170 73q75 0 133 -37v26h162v-485h-36q-39 -11 -39 -35q0 -28 50 -28q20 0 47 7zM306 123q62 0 101 45v150q-39 46 -101 46q-49 0 -81.5 -35
t-32.5 -86t32.5 -85.5t81.5 -34.5z" />
    <glyph glyph-name="Cacute" unicode="&#x106;" horiz-adv-x="789" 
d="M478 750h-151l80 160h171zM403 144q67 0 111 36.5t58 101.5h173q-16 -133 -109 -214.5t-232 -81.5q-154 0 -257 100.5t-103 253.5t103 253.5t257 100.5q139 0 232 -81.5t109 -214.5h-173q-14 65 -58 101.5t-111 36.5q-83 0 -135.5 -55.5t-52.5 -140.5t52.5 -140.5
t135.5 -55.5z" />
    <glyph glyph-name="cacute" unicode="&#x107;" horiz-adv-x="580" 
d="M370 557h-151l80 160h171zM298 126q37 0 63 20t32 53h153q-8 -93 -77.5 -151.5t-170.5 -58.5q-115 0 -190 71.5t-75 182.5q0 110 75 181.5t190 71.5q101 0 170.5 -58.5t77.5 -151.5h-153q-6 33 -32 53t-63 20q-51 0 -81 -32.5t-30 -83.5t30 -84t81 -33z" />
    <glyph glyph-name="Cdotaccent" unicode="&#x10a;" horiz-adv-x="789" 
d="M401 743q-38 0 -65 25.5t-27 62.5t27 62.5t65 25.5t64.5 -25.5t26.5 -62.5t-26.5 -62.5t-64.5 -25.5zM403 144q67 0 111 36.5t58 101.5h173q-16 -133 -109 -214.5t-232 -81.5q-154 0 -257 100.5t-103 253.5t103 253.5t257 100.5q139 0 232 -81.5t109 -214.5h-173
q-14 65 -58 101.5t-111 36.5q-83 0 -135.5 -55.5t-52.5 -140.5t52.5 -140.5t135.5 -55.5z" />
    <glyph glyph-name="cdotaccent" unicode="&#x10b;" horiz-adv-x="580" 
d="M293 550q-38 0 -65 25.5t-27 62.5t27 62.5t65 25.5t64.5 -25.5t26.5 -62.5t-26.5 -62.5t-64.5 -25.5zM298 126q37 0 63 20t32 53h153q-8 -93 -77.5 -151.5t-170.5 -58.5q-115 0 -190 71.5t-75 182.5q0 110 75 181.5t190 71.5q101 0 170.5 -58.5t77.5 -151.5h-153
q-6 33 -32 53t-63 20q-51 0 -81 -32.5t-30 -83.5t30 -84t81 -33z" />
    <glyph glyph-name="Ccaron" unicode="&#x10c;" horiz-adv-x="789" 
d="M323 740l-116 160h142l53 -66l51 66h142l-116 -160h-156zM403 144q67 0 111 36.5t58 101.5h173q-16 -133 -109 -214.5t-232 -81.5q-154 0 -257 100.5t-103 253.5t103 253.5t257 100.5q139 0 232 -81.5t109 -214.5h-173q-14 65 -58 101.5t-111 36.5q-83 0 -135.5 -55.5
t-52.5 -140.5t52.5 -140.5t135.5 -55.5z" />
    <glyph glyph-name="ccaron" unicode="&#x10d;" horiz-adv-x="580" 
d="M214 551l-116 160h142l53 -66l51 66h142l-116 -160h-156zM298 126q37 0 63 20t32 53h153q-8 -93 -77.5 -151.5t-170.5 -58.5q-115 0 -190 71.5t-75 182.5q0 110 75 181.5t190 71.5q101 0 170.5 -58.5t77.5 -151.5h-153q-6 33 -32 53t-63 20q-51 0 -81 -32.5t-30 -83.5
t30 -84t81 -33z" />
    <glyph glyph-name="Dcaron" unicode="&#x10e;" horiz-adv-x="737" 
d="M260 740l-116 160h142l53 -66l51 66h142l-116 -160h-156zM60 680h274q160 0 263.5 -94.5t103.5 -243.5q0 -151 -103.5 -246.5t-263.5 -95.5h-274v680zM229 152h105q83 0 139 54.5t56 135.5q0 79 -56 132.5t-139 53.5h-105v-376z" />
    <glyph glyph-name="dcaron" unicode="&#x10f;" horiz-adv-x="624" 
d="M407 710h162v-710h-162v25q-58 -37 -133 -37q-99 0 -170 73t-71 181q0 107 71 179.5t170 72.5q75 0 133 -37v253zM770 710l-39 -204h-115l6 204h148zM306 121q62 0 101 45v150q-39 46 -101 46q-49 0 -81.5 -35t-32.5 -85q0 -51 32.5 -86t81.5 -35z" />
    <glyph glyph-name="Dcroat" unicode="&#x110;" horiz-adv-x="737" 
d="M60 680h274q160 0 263.5 -94.5t103.5 -243.5q0 -151 -103.5 -246.5t-263.5 -95.5h-274v262h-53v146h53v272zM229 152h105q83 0 139 54.5t56 135.5q0 79 -56 132.5t-139 53.5h-105v-120h112v-146h-112v-110z" />
    <glyph glyph-name="dcroat" unicode="&#x111;" horiz-adv-x="624" 
d="M599 545h-30v-545h-162v25q-58 -37 -133 -37q-99 0 -170 73t-71 181q0 107 71 179.5t170 72.5q75 0 133 -37v88h-148v114h148v51h162v-51h30v-114zM306 121q62 0 101 45v150q-39 46 -101 46q-49 0 -81.5 -35t-32.5 -85q0 -51 32.5 -86t81.5 -35z" />
    <glyph glyph-name="Emacron" unicode="&#x112;" horiz-adv-x="610" 
d="M455 751h-286v124h286v-124zM229 533v-124h301v-144h-301v-118h345v-147h-514v680h514v-147h-345z" />
    <glyph glyph-name="emacron" unicode="&#x113;" horiz-adv-x="573" 
d="M435 570h-286v124h286v-124zM539 253q0 -37 -3 -55l1 -3h-346q23 -78 109 -78q52 0 74 35h160q-17 -75 -81.5 -119t-154.5 -44q-118 0 -191.5 71t-73.5 183q0 111 71.5 182t186.5 71q107 0 177.5 -67.5t70.5 -175.5zM291 371q-82 0 -102 -81h198q-14 81 -96 81z" />
    <glyph glyph-name="Edotaccent" unicode="&#x116;" horiz-adv-x="610" 
d="M312 743q-38 0 -65 25.5t-27 62.5t27 62.5t65 25.5t64.5 -25.5t26.5 -62.5t-26.5 -62.5t-64.5 -25.5zM229 533v-124h301v-144h-301v-118h345v-147h-514v680h514v-147h-345z" />
    <glyph glyph-name="edotaccent" unicode="&#x117;" horiz-adv-x="573" 
d="M292 550q-38 0 -65 25.5t-27 62.5t27 62.5t65 25.5t64.5 -25.5t26.5 -62.5t-26.5 -62.5t-64.5 -25.5zM539 253q0 -37 -3 -55l1 -3h-346q23 -78 109 -78q52 0 74 35h160q-17 -75 -81.5 -119t-154.5 -44q-118 0 -191.5 71t-73.5 183q0 111 71.5 182t186.5 71
q107 0 177.5 -67.5t70.5 -175.5zM291 371q-82 0 -102 -81h198q-14 81 -96 81z" />
    <glyph glyph-name="Eogonek" unicode="&#x118;" horiz-adv-x="610" 
d="M596 -56l15 -120q-28 -14 -81 -14q-72 0 -118 34t-46 93q0 33 24 63h-330v680h514v-147h-345v-124h301v-144h-301v-118h345v-147h-36q-39 -11 -39 -35q0 -28 50 -28q20 0 47 7z" />
    <glyph glyph-name="eogonek" unicode="&#x119;" horiz-adv-x="573" 
d="M539 253q0 -37 -3 -55l1 -3h-346q23 -78 109 -78q52 0 74 35h160q-18 -75 -82 -119q-43 -34 -43 -64q0 -34 49 -34q21 0 48 7l15 -120q-28 -14 -82 -14q-69 0 -113 34t-44 89q0 30 16 58q-118 0 -191.5 71t-73.5 183q0 111 71.5 182t186.5 71q107 0 177.5 -67.5
t70.5 -175.5zM291 371q-82 0 -102 -81h198q-14 81 -96 81z" />
    <glyph glyph-name="Ecaron" unicode="&#x11a;" horiz-adv-x="610" 
d="M233 740l-116 160h142l53 -66l51 66h142l-116 -160h-156zM229 533v-124h301v-144h-301v-118h345v-147h-514v680h514v-147h-345z" />
    <glyph glyph-name="ecaron" unicode="&#x11b;" horiz-adv-x="573" 
d="M213 551l-116 160h142l53 -66l51 66h142l-116 -160h-156zM539 253q0 -37 -3 -55l1 -3h-346q23 -78 109 -78q52 0 74 35h160q-17 -75 -81.5 -119t-154.5 -44q-118 0 -191.5 71t-73.5 183q0 111 71.5 182t186.5 71q107 0 177.5 -67.5t70.5 -175.5zM291 371q-82 0 -102 -81
h198q-14 81 -96 81z" />
    <glyph glyph-name="Gbreve" unicode="&#x11e;" horiz-adv-x="809" 
d="M403 748q-79 0 -127 44.5t-48 124.5h115q0 -32 16.5 -48.5t43.5 -16.5q26 0 43 16.5t17 48.5h115q0 -80 -48 -124.5t-127 -44.5zM754 382v-382h-126l-7 82q-78 -96 -215 -96q-158 0 -260 99.5t-102 247.5q0 158 103.5 259.5t260.5 101.5q128 0 223 -68.5t116 -187.5h-177
q-38 101 -159 101q-87 0 -141.5 -56t-54.5 -146q0 -82 54.5 -138t143.5 -56q119 0 172 104l-195 2v133h364z" />
    <glyph glyph-name="gbreve" unicode="&#x11f;" horiz-adv-x="628" 
d="M327 544q-79 0 -127 44.5t-48 124.5h115q0 -32 16.5 -48.5t43.5 -16.5q26 0 43 16.5t17 48.5h115q0 -80 -48 -124.5t-127 -44.5zM572 485v-477q0 -112 -72 -176t-188 -64q-111 0 -183.5 58t-78.5 152h160q13 -73 102 -73q43 0 70.5 26t27.5 74v46q-58 -34 -132 -34
q-99 0 -170 69t-71 167q0 109 70.5 179t170.5 70q73 0 132 -36v19h162zM310 146q60 0 100 45v134q-40 45 -100 45q-50 0 -82 -32.5t-32 -84.5q0 -41 33 -74t81 -33z" />
    <glyph glyph-name="Gdotaccent" unicode="&#x120;" horiz-adv-x="809" 
d="M403 743q-38 0 -65 25.5t-27 62.5t27 62.5t65 25.5t64.5 -25.5t26.5 -62.5t-26.5 -62.5t-64.5 -25.5zM754 382v-382h-126l-7 82q-78 -96 -215 -96q-158 0 -260 99.5t-102 247.5q0 158 103.5 259.5t260.5 101.5q128 0 223 -68.5t116 -187.5h-177q-38 101 -159 101
q-87 0 -141.5 -56t-54.5 -146q0 -82 54.5 -138t143.5 -56q119 0 172 104l-195 2v133h364z" />
    <glyph glyph-name="gdotaccent" unicode="&#x121;" horiz-adv-x="628" 
d="M327 550q-38 0 -65 25.5t-27 62.5t27 62.5t65 25.5t64.5 -25.5t26.5 -62.5t-26.5 -62.5t-64.5 -25.5zM572 485v-477q0 -112 -72 -176t-188 -64q-111 0 -183.5 58t-78.5 152h160q13 -73 102 -73q43 0 70.5 26t27.5 74v46q-58 -34 -132 -34q-99 0 -170 69t-71 167
q0 109 70.5 179t170.5 70q73 0 132 -36v19h162zM310 146q60 0 100 45v134q-40 45 -100 45q-50 0 -82 -32.5t-32 -84.5q0 -41 33 -74t81 -33z" />
    <glyph glyph-name="Gcommaaccent" unicode="&#x122;" horiz-adv-x="809" 
d="M754 382v-382h-126l-7 82q-78 -96 -215 -96q-158 0 -260 99.5t-102 247.5q0 158 103.5 259.5t260.5 101.5q128 0 223 -68.5t116 -187.5h-177q-38 101 -159 101q-87 0 -141.5 -56t-54.5 -146q0 -82 54.5 -138t143.5 -56q119 0 172 104l-195 2v133h364zM403 -44
q35 0 59.5 -23.5t24.5 -56.5q0 -23 -13 -47t-66 -103h-83l41 83q-48 20 -48 67q0 33 25 56.5t60 23.5z" />
    <glyph glyph-name="gcommaaccent" unicode="&#x123;" horiz-adv-x="628" 
d="M327 529q-35 0 -59.5 23.5t-24.5 56.5q0 23 13 47t66 103h83l-41 -83q48 -20 48 -67q0 -33 -25 -56.5t-60 -23.5zM572 485v-477q0 -112 -72 -176t-188 -64q-111 0 -183.5 58t-78.5 152h160q13 -73 102 -73q43 0 70.5 26t27.5 74v46q-58 -34 -132 -34q-99 0 -170 69
t-71 167q0 109 70.5 179t170.5 70q73 0 132 -36v19h162zM310 146q60 0 100 45v134q-40 45 -100 45q-50 0 -82 -32.5t-32 -84.5q0 -41 33 -74t81 -33z" />
    <glyph glyph-name="Hbar" unicode="&#x126;" horiz-adv-x="734" 
d="M711 485h-36v-485h-169v255h-277v-255h-169v485h-45v115h45v80h169v-80h277v80h169v-80h36v-115zM506 485h-277v-78h277v78z" />
    <glyph glyph-name="hbar" unicode="&#x127;" horiz-adv-x="606" 
d="M351 500q93 0 150 -60t57 -163v-277h-163v251q0 50 -23.5 76t-64.5 26q-47 0 -90 -49v-304h-162v575h-33v95h33v40h162v-40h110v-95h-110v-123q60 48 134 48z" />
    <glyph glyph-name="Imacron" unicode="&#x12a;" horiz-adv-x="289" 
d="M287 875v-124h-286v124h286zM229 680v-680h-169v680h169z" />
    <glyph glyph-name="imacron" unicode="&#x12b;" horiz-adv-x="279" 
d="M283 694v-124h-286v124h286zM221 485v-485h-162v485h162z" />
    <glyph glyph-name="Iogonek" unicode="&#x12e;" horiz-adv-x="289" 
d="M249 -56l15 -120q-28 -14 -81 -14q-72 0 -118 34t-46 93q0 45 41 80v663h169v-680h-38q-39 -11 -39 -35q0 -28 50 -28q20 0 47 7z" />
    <glyph glyph-name="iogonek" unicode="&#x12f;" horiz-adv-x="279" 
d="M139 561q-40 0 -67.5 26t-27.5 65t27.5 65.5t67.5 26.5q39 0 67 -26.5t28 -65.5t-28 -65t-67 -26zM242 -56l15 -120q-28 -14 -81 -14q-72 0 -118 34t-46 93q0 48 47 85v463h162v-485h-37q-39 -11 -39 -35q0 -28 50 -28q20 0 47 7z" />
    <glyph glyph-name="Idotaccent" unicode="&#x130;" horiz-adv-x="289" 
d="M144 745q-40 0 -67.5 26t-27.5 65t27.5 65t67.5 26q39 0 66.5 -26t27.5 -65t-27.5 -65t-66.5 -26zM229 680v-680h-169v680h169z" />
    <glyph glyph-name="dotlessi" unicode="&#x131;" horiz-adv-x="279" 
d="M221 485v-485h-162v485h162z" />
    <glyph glyph-name="IJ" unicode="&#x132;" horiz-adv-x="902" 
d="M229 680v-680h-169v680h169zM852 680v-408q0 -138 -74 -212.5t-207 -74.5q-121 0 -195 67.5t-79 188.5h168q3 -48 33 -75t78 -27q47 0 75.5 35t28.5 98v408h172z" />
    <glyph glyph-name="ij" unicode="&#x133;" horiz-adv-x="555" 
d="M139 561q-40 0 -67.5 26t-27.5 65t27.5 65.5t67.5 26.5q39 0 67 -26.5t28 -65.5t-28 -65t-67 -26zM415 561q-39 0 -67 26t-28 65t28 65.5t67 26.5q40 0 67.5 -26.5t27.5 -65.5t-27.5 -65t-67.5 -26zM221 485v-485h-162v485h162zM497 485v-446q0 -120 -51 -178.5
t-188 -61.5l-14 135q52 5 71 23t19 61v467h163z" />
    <glyph glyph-name="Kcommaaccent" unicode="&#x136;" horiz-adv-x="728" 
d="M722 0h-206l-190 250l-97 -112v-138h-169v680h169v-309l271 309h200l-259 -298zM365 -44q35 0 59.5 -23.5t24.5 -56.5q0 -23 -13 -47t-66 -103h-83l41 83q-48 20 -48 67q0 33 25 56.5t60 23.5z" />
    <glyph glyph-name="kcommaaccent" unicode="&#x137;" horiz-adv-x="598" 
d="M595 0h-194l-116 168l-68 -73v-95h-162v710h162v-407l169 182h193l-184 -198zM300 -44q35 0 59.5 -23.5t24.5 -56.5q0 -23 -13 -47t-66 -103h-83l41 83q-48 20 -48 67q0 33 25 56.5t60 23.5z" />
    <glyph glyph-name="Lacute" unicode="&#x139;" horiz-adv-x="585" 
d="M221 750h-151l80 160h171zM565 149v-149h-505v680h169v-531h336z" />
    <glyph glyph-name="lacute" unicode="&#x13a;" horiz-adv-x="273" 
d="M314 942l-100 -160h-151l80 160h171zM217 710v-710h-162v710h162z" />
    <glyph glyph-name="Lcommaaccent" unicode="&#x13b;" horiz-adv-x="585" 
d="M565 149v-149h-505v680h169v-531h336zM320 -44q35 0 59.5 -23.5t24.5 -56.5q0 -23 -13 -47t-66 -103h-83l41 83q-48 20 -48 67q0 33 25 56.5t60 23.5z" />
    <glyph glyph-name="lcommaaccent" unicode="&#x13c;" horiz-adv-x="273" 
d="M217 710v-710h-162v710h162zM56 -274l41 83q-48 20 -48 67q0 33 25 56.5t60 23.5t59.5 -23.5t24.5 -56.5q0 -23 -13 -47t-66 -103h-83z" />
    <glyph glyph-name="Lcaron" unicode="&#x13d;" horiz-adv-x="585" 
d="M565 149v-149h-505v680h169v-531h336zM446 476h-115l6 204h148z" />
    <glyph glyph-name="lcaron" unicode="&#x13e;" horiz-adv-x="273" 
d="M217 710v-710h-162v710h162zM403 710l-39 -204h-115l6 204h148z" />
    <glyph glyph-name="Ldot" unicode="&#x13f;" horiz-adv-x="585" 
d="M565 149v-149h-505v680h169v-531h336zM412 272q-38 0 -65 25.5t-27 62.5t27 62.5t65 25.5t64.5 -25.5t26.5 -62.5t-26.5 -62.5t-64.5 -25.5z" />
    <glyph glyph-name="ldot" unicode="&#x140;" horiz-adv-x="464" 
d="M217 710v-710h-162v710h162zM333 256q-38 0 -65 25.5t-27 62.5t27 62.5t65 25.5t64.5 -25.5t26.5 -62.5t-26.5 -62.5t-64.5 -25.5z" />
    <glyph glyph-name="Lslash" unicode="&#x141;" horiz-adv-x="585" 
d="M565 149v-149h-505v235l-53 -19v133l53 19v312h169v-251l152 54v-133l-152 -54v-147h336z" />
    <glyph glyph-name="lslash" unicode="&#x142;" horiz-adv-x="273" 
d="M272 338l-55 -20v-318h-162v258l-53 -20v147l53 19v306h162v-246l55 20v-146z" />
    <glyph glyph-name="Nacute" unicode="&#x143;" horiz-adv-x="745" 
d="M450 750h-151l80 160h171zM686 680v-680h-131l-326 373v-373h-169v680h129l328 -383v383h169z" />
    <glyph glyph-name="nacute" unicode="&#x144;" horiz-adv-x="606" 
d="M381 557h-151l80 160h171zM351 500q93 0 150 -60t57 -163v-277h-163v251q0 50 -23.5 76t-64.5 26q-47 0 -90 -49v-304h-162v485h162v-33q60 48 134 48z" />
    <glyph glyph-name="Ncommaaccent" unicode="&#x145;" horiz-adv-x="745" 
d="M686 680v-680h-131l-326 373v-373h-169v680h129l328 -383v383h169zM373 -44q35 0 59.5 -23.5t24.5 -56.5q0 -23 -13 -47t-66 -103h-83l41 83q-48 20 -48 67q0 33 25 56.5t60 23.5z" />
    <glyph glyph-name="ncommaaccent" unicode="&#x146;" horiz-adv-x="606" 
d="M351 500q93 0 150 -60t57 -163v-277h-163v251q0 50 -23.5 76t-64.5 26q-47 0 -90 -49v-304h-162v485h162v-33q60 48 134 48zM304 -44q35 0 59.5 -23.5t24.5 -56.5q0 -23 -13 -47t-66 -103h-83l41 83q-48 20 -48 67q0 33 25 56.5t60 23.5z" />
    <glyph glyph-name="Ncaron" unicode="&#x147;" horiz-adv-x="745" 
d="M294 740l-116 160h142l53 -66l51 66h142l-116 -160h-156zM686 680v-680h-131l-326 373v-373h-169v680h129l328 -383v383h169z" />
    <glyph glyph-name="ncaron" unicode="&#x148;" horiz-adv-x="606" 
d="M225 551l-116 160h142l53 -66l51 66h142l-116 -160h-156zM351 500q93 0 150 -60t57 -163v-277h-163v251q0 50 -23.5 76t-64.5 26q-47 0 -90 -49v-304h-162v485h162v-33q60 48 134 48z" />
    <glyph glyph-name="Omacron" unicode="&#x14c;" horiz-adv-x="808" 
d="M547 875v-124h-286v124h286zM404 694q154 0 257.5 -102.5t103.5 -251.5t-103.5 -251.5t-257.5 -102.5q-153 0 -256.5 102.5t-103.5 251.5t103.5 251.5t256.5 102.5zM404 143q81 0 135 57.5t54 139.5t-54 139.5t-135 57.5t-135 -57.5t-54 -139.5t54 -139.5t135 -57.5z" />
    <glyph glyph-name="omacron" unicode="&#x14d;" horiz-adv-x="593" 
d="M440 694v-124h-286v124h286zM296 496q115 0 189 -71.5t74 -181.5q0 -111 -74.5 -184.5t-188.5 -73.5t-188.5 73.5t-74.5 184.5q0 110 74 181.5t189 71.5zM297 125q48 0 78.5 33.5t30.5 83.5q0 48 -30.5 81t-78.5 33q-49 0 -79.5 -33t-30.5 -81q0 -50 30.5 -83.5
t79.5 -33.5z" />
    <glyph glyph-name="Ohungarumlaut" unicode="&#x150;" horiz-adv-x="808" 
d="M455 911l-73 -160h-124l53 160h144zM619 911l-73 -160h-124l53 160h144zM404 694q154 0 257.5 -102.5t103.5 -251.5t-103.5 -251.5t-257.5 -102.5q-153 0 -256.5 102.5t-103.5 251.5t103.5 251.5t256.5 102.5zM404 143q81 0 135 57.5t54 139.5t-54 139.5t-135 57.5
t-135 -57.5t-54 -139.5t54 -139.5t135 -57.5z" />
    <glyph glyph-name="ohungarumlaut" unicode="&#x151;" horiz-adv-x="593" 
d="M348 718l-73 -160h-124l53 160h144zM512 718l-73 -160h-124l53 160h144zM296 496q115 0 189 -71.5t74 -181.5q0 -111 -74.5 -184.5t-188.5 -73.5t-188.5 73.5t-74.5 184.5q0 110 74 181.5t189 71.5zM297 125q48 0 78.5 33.5t30.5 83.5q0 48 -30.5 81t-78.5 33
q-49 0 -79.5 -33t-30.5 -81q0 -50 30.5 -83.5t79.5 -33.5z" />
    <glyph glyph-name="OE" unicode="&#x152;" horiz-adv-x="986" 
d="M604 533v-124h302v-144h-302v-118h345v-147h-551q-164 0 -269 95.5t-105 244.5t105 244.5t269 95.5h551v-147h-345zM435 158v364h-37q-92 0 -147.5 -50.5t-55.5 -131.5t55.5 -131.5t147.5 -50.5h37z" />
    <glyph glyph-name="oe" unicode="&#x153;" horiz-adv-x="946" 
d="M912 253q0 -39 -2 -58h-345q23 -78 108 -78q53 0 75 35h160q-17 -75 -81.5 -119t-154.5 -44q-116 0 -189 68q-74 -72 -187 -72q-114 0 -188.5 73.5t-74.5 184.5q0 110 74 181.5t189 71.5q112 0 185 -68q71 68 184 68q107 0 177 -67.5t70 -175.5zM664 371q-81 0 -101 -81
h198q-14 81 -97 81zM297 125q48 0 78.5 33.5t30.5 83.5q0 48 -30.5 81t-78.5 33q-49 0 -79.5 -33t-30.5 -81q0 -50 30.5 -83.5t79.5 -33.5z" />
    <glyph glyph-name="Racute" unicode="&#x154;" horiz-adv-x="701" 
d="M391 750h-151l80 160h171zM334 197h-105v-197h-169v680h298q127 0 204 -64.5t77 -174.5q0 -70 -34 -125t-96 -86l175 -230h-204zM229 349h125q50 0 83.5 25.5t33.5 66.5q0 40 -33.5 65t-83.5 25h-125v-182z" />
    <glyph glyph-name="racute" unicode="&#x155;" horiz-adv-x="410" 
d="M294 557h-151l80 160h171zM217 485v-52q70 60 167 60v-154q-109 -4 -167 -62v-277h-162v485h162z" />
    <glyph glyph-name="Rcommaaccent" unicode="&#x156;" horiz-adv-x="701" 
d="M684 0h-204l-146 197h-105v-197h-169v680h298q127 0 204 -64.5t77 -174.5q0 -70 -34 -125t-96 -86zM229 349h125q50 0 83.5 25.5t33.5 66.5q0 40 -33.5 65t-83.5 25h-125v-182zM346 -44q35 0 59.5 -23.5t24.5 -56.5q0 -23 -13 -47t-66 -103h-83l41 83q-48 20 -48 67
q0 33 25 56.5t60 23.5z" />
    <glyph glyph-name="rcommaaccent" unicode="&#x157;" horiz-adv-x="410" 
d="M217 485v-52q70 60 167 60v-154q-109 -4 -167 -62v-277h-162v485h162zM134 -44q35 0 59.5 -23.5t24.5 -56.5q0 -23 -13 -47t-66 -103h-83l41 83q-48 20 -48 67q0 33 25 56.5t60 23.5z" />
    <glyph glyph-name="Rcaron" unicode="&#x158;" horiz-adv-x="701" 
d="M236 740l-116 160h142l53 -66l51 66h142l-116 -160h-156zM334 197h-105v-197h-169v680h298q127 0 204 -64.5t77 -174.5q0 -70 -34 -125t-96 -86l175 -230h-204zM229 349h125q50 0 83.5 25.5t33.5 66.5q0 40 -33.5 65t-83.5 25h-125v-182z" />
    <glyph glyph-name="rcaron" unicode="&#x159;" horiz-adv-x="410" 
d="M138 551l-116 160h142l53 -66l51 66h142l-116 -160h-156zM217 485v-52q70 60 167 60v-154q-109 -4 -167 -62v-277h-162v485h162z" />
    <glyph glyph-name="Sacute" unicode="&#x15a;" horiz-adv-x="676" 
d="M515 910l-100 -160h-151l80 160h171zM337 695q46 0 90.5 -10t89 -33.5t75 -70.5t36.5 -112h-170q-15 86 -110 86q-44 0 -70.5 -18t-26.5 -50q0 -27 19 -41t59 -23l95 -22q101 -22 153 -66.5t52 -127.5q0 -102 -77 -161.5t-205 -59.5q-124 0 -210 60.5t-97 179.5h169
q8 -45 45.5 -70.5t97.5 -25.5q47 0 71.5 16t24.5 44q0 44 -72 58l-112 25q-101 22 -149 70.5t-48 129.5q0 101 74.5 161.5t195.5 60.5z" />
    <glyph glyph-name="sacute" unicode="&#x15b;" horiz-adv-x="521" 
d="M437 717l-100 -160h-151l80 160h171zM22 167l144 -1q10 -61 93 -61q69 0 69 34q0 27 -47 34l-98 17q-66 11 -104 47.5t-38 98.5q0 76 59 119t157 43q57 0 104 -14.5t83.5 -54t39.5 -99.5h-144q-2 27 -24.5 40.5t-57.5 13.5q-30 0 -45.5 -10t-15.5 -25q0 -29 50 -38
l91 -15q151 -28 151 -147q0 -80 -63.5 -122t-163.5 -42q-102 0 -167.5 45t-72.5 137z" />
    <glyph glyph-name="Scedilla" unicode="&#x15e;" horiz-adv-x="676" 
d="M337 695q46 0 90.5 -10t89 -33.5t75 -70.5t36.5 -112h-170q-15 86 -110 86q-44 0 -70.5 -18t-26.5 -50q0 -27 19 -41t59 -23l95 -22q101 -22 153 -66.5t52 -127.5q0 -102 -77 -161.5t-205 -59.5q-124 0 -210 60.5t-97 179.5h169q8 -45 45.5 -70.5t97.5 -25.5
q47 0 71.5 16t24.5 44q0 44 -72 58l-112 25q-101 22 -149 70.5t-48 129.5q0 101 74.5 161.5t195.5 60.5zM368 -228h-135l43 177h152z" />
    <glyph glyph-name="scedilla" unicode="&#x15f;" horiz-adv-x="521" 
d="M22 167l144 -1q10 -61 93 -61q69 0 69 34q0 27 -47 34l-98 17q-66 11 -104 47.5t-38 98.5q0 76 59 119t157 43q57 0 104 -14.5t83.5 -54t39.5 -99.5h-144q-2 27 -24.5 40.5t-57.5 13.5q-30 0 -45.5 -10t-15.5 -25q0 -29 50 -38l91 -15q151 -28 151 -147q0 -80 -63.5 -122
t-163.5 -42q-102 0 -167.5 45t-72.5 137zM281 -228h-135l43 177h152z" />
    <glyph glyph-name="Scaron" unicode="&#x160;" horiz-adv-x="676" 
d="M532 900l-116 -160h-156l-116 160h142l53 -66l51 66h142zM337 695q46 0 90.5 -10t89 -33.5t75 -70.5t36.5 -112h-170q-15 86 -110 86q-44 0 -70.5 -18t-26.5 -50q0 -27 19 -41t59 -23l95 -22q101 -22 153 -66.5t52 -127.5q0 -102 -77 -161.5t-205 -59.5q-124 0 -210 60.5
t-97 179.5h169q8 -45 45.5 -70.5t97.5 -25.5q47 0 71.5 16t24.5 44q0 44 -72 58l-112 25q-101 22 -149 70.5t-48 129.5q0 101 74.5 161.5t195.5 60.5z" />
    <glyph glyph-name="scaron" unicode="&#x161;" horiz-adv-x="521" 
d="M454 711l-116 -160h-156l-116 160h142l53 -66l51 66h142zM22 167l144 -1q10 -61 93 -61q69 0 69 34q0 27 -47 34l-98 17q-66 11 -104 47.5t-38 98.5q0 76 59 119t157 43q57 0 104 -14.5t83.5 -54t39.5 -99.5h-144q-2 27 -24.5 40.5t-57.5 13.5q-30 0 -45.5 -10t-15.5 -25
q0 -29 50 -38l91 -15q151 -28 151 -147q0 -80 -63.5 -122t-163.5 -42q-102 0 -167.5 45t-72.5 137z" />
    <glyph glyph-name="Tcedilla" unicode="&#x162;" horiz-adv-x="648" 
d="M625 529h-216v-529h-169v529h-217v151h602v-151zM251 -51h152l-60 -177h-135z" />
    <glyph glyph-name="tcedilla" unicode="&#x163;" horiz-adv-x="470" 
d="M297 -15q-88 0 -141.5 59.5t-53.5 157.5v144h-95v139h95v165h162v-165h165v-139h-165v-139q0 -73 76 -73q24 0 86 12l18 -137q-76 -24 -147 -24zM200 -51h152l-60 -177h-135z" />
    <glyph glyph-name="Tcaron" unicode="&#x164;" horiz-adv-x="648" 
d="M245 740l-116 160h142l53 -66l51 66h142l-116 -160h-156zM625 529h-216v-529h-169v529h-217v151h602v-151z" />
    <glyph glyph-name="tcaron" unicode="&#x165;" horiz-adv-x="470" 
d="M421 514h-115l6 204h148zM340 134q24 0 86 12l18 -137q-76 -24 -147 -24q-88 0 -141.5 59.5t-53.5 157.5v144h-95v139h95v165h162v-165h165v-139h-165v-139q0 -73 76 -73z" />
    <glyph glyph-name="Umacron" unicode="&#x16a;" horiz-adv-x="733" 
d="M510 875v-124h-286v124h286zM683 680v-363q0 -157 -85 -244.5t-232 -87.5t-231.5 87.5t-84.5 244.5v363h170v-366q0 -78 39.5 -124.5t106.5 -46.5t107 46.5t40 124.5v366h170z" />
    <glyph glyph-name="umacron" unicode="&#x16b;" horiz-adv-x="606" 
d="M447 570h-286v124h286v-124zM551 485v-485h-162v32q-61 -47 -133 -47q-93 0 -150 60t-57 163v277h162v-252q0 -50 24 -76t65 -26q46 0 89 48v306h162z" />
    <glyph glyph-name="Uring" unicode="&#x16e;" horiz-adv-x="733" 
d="M366 979q55 0 89.5 -31.5t34.5 -83.5t-34.5 -84t-89.5 -32t-89.5 32t-34.5 84t34.5 83.5t89.5 31.5zM366 820q20 0 32 12t12 32q0 19 -12 30.5t-32 11.5t-32 -11.5t-12 -30.5q0 -20 12 -32t32 -12zM683 680v-363q0 -157 -85 -244.5t-232 -87.5t-231.5 87.5t-84.5 244.5
v363h170v-366q0 -78 39.5 -124.5t106.5 -46.5t107 46.5t40 124.5v366h170z" />
    <glyph glyph-name="uring" unicode="&#x16f;" horiz-adv-x="606" 
d="M303 548q-55 0 -89.5 32t-34.5 84t34.5 83.5t89.5 31.5t89.5 -31.5t34.5 -83.5t-34.5 -84t-89.5 -32zM303 706q-20 0 -32 -11.5t-12 -30.5q0 -20 12 -32t32 -12t32 12t12 32q0 19 -12 30.5t-32 11.5zM551 485v-485h-162v32q-61 -47 -133 -47q-93 0 -150 60t-57 163v277
h162v-252q0 -50 24 -76t65 -26q46 0 89 48v306h162z" />
    <glyph glyph-name="Uhungarumlaut" unicode="&#x170;" horiz-adv-x="733" 
d="M418 911l-73 -160h-124l53 160h144zM582 911l-73 -160h-124l53 160h144zM683 680v-363q0 -157 -85 -244.5t-232 -87.5t-231.5 87.5t-84.5 244.5v363h170v-366q0 -78 39.5 -124.5t106.5 -46.5t107 46.5t40 124.5v366h170z" />
    <glyph glyph-name="uhungarumlaut" unicode="&#x171;" horiz-adv-x="606" 
d="M282 558h-124l53 160h144zM322 558l53 160h144l-73 -160h-124zM551 485v-485h-162v32q-61 -47 -133 -47q-93 0 -150 60t-57 163v277h162v-252q0 -50 24 -76t65 -26q46 0 89 48v306h162z" />
    <glyph glyph-name="Uogonek" unicode="&#x172;" horiz-adv-x="733" 
d="M683 680v-363q0 -110 -42.5 -187t-120.5 -114q-65 -45 -65 -84q0 -33 47 -33q20 0 47 7l15 -128q-30 -13 -81 -13q-70 0 -112.5 32.5t-42.5 87.5q0 50 47 100h-9q-147 0 -231.5 87.5t-84.5 244.5v363h170v-366q0 -78 39.5 -124.5t106.5 -46.5t107 46.5t40 124.5v366h170z
" />
    <glyph glyph-name="uogonek" unicode="&#x173;" horiz-adv-x="606" 
d="M576 -61l15 -120q-28 -14 -81 -14q-72 0 -118 34t-46 93q0 46 43 82v18q-61 -47 -133 -47q-93 0 -150 60t-57 163v277h162v-252q0 -50 24 -76t65 -26q46 0 89 48v306h162v-485h-12q-60 -12 -60 -40t50 -28q20 0 47 7z" />
    <glyph glyph-name="Wcircumflex" unicode="&#x174;" horiz-adv-x="1080" 
d="M488 750h-141l117 164h153l116 -164h-141l-51 66zM1060 680l-220 -684h-163l-137 415l-137 -415h-163l-220 684h179l127 -423l144 421v2h140l144 -422l127 422h179z" />
    <glyph glyph-name="wcircumflex" unicode="&#x175;" horiz-adv-x="810" 
d="M352 550h-141l117 164h153l116 -164h-141l-51 66zM796 485l-166 -485h-148l-77 250l-78 -250h-147l-167 485h170l76 -260l82 260h128l82 -258l76 258h169z" />
    <glyph glyph-name="Ycircumflex" unicode="&#x176;" horiz-adv-x="719" 
d="M307 750h-141l117 164h153l116 -164h-141l-51 66zM713 680l-268 -475v-205h-170v205l-269 475h187l166 -296l167 296h187z" />
    <glyph glyph-name="ycircumflex" unicode="&#x177;" horiz-adv-x="641" 
d="M271 550h-141l117 164h153l116 -164h-141l-51 66zM624 485l-299 -709h-170l92 218l-230 491h172l139 -299l126 299h170z" />
    <glyph glyph-name="Ydieresis" unicode="&#x178;" horiz-adv-x="719" 
d="M245 743q-38 0 -65 25.5t-27 62.5t27 62.5t65 25.5t64.5 -25.5t26.5 -62.5t-26.5 -62.5t-64.5 -25.5zM474 743q-38 0 -65 25.5t-27 62.5t27 62.5t65 25.5t64.5 -25.5t26.5 -62.5t-26.5 -62.5t-64.5 -25.5zM713 680l-268 -475v-205h-170v205l-269 475h187l166 -296
l167 296h187z" />
    <glyph glyph-name="Zacute" unicode="&#x179;" horiz-adv-x="658" 
d="M407 750h-151l80 160h171zM623 149v-149h-589v80l337 451h-320v149h566v-80l-323 -451h329z" />
    <glyph glyph-name="zacute" unicode="&#x17a;" horiz-adv-x="512" 
d="M333 557h-151l80 160h171zM483 399l-221 -265h221v-134h-453v79l228 271h-224v135h449v-86z" />
    <glyph glyph-name="Zdotaccent" unicode="&#x17b;" horiz-adv-x="658" 
d="M330 743q-38 0 -65 25.5t-27 62.5t27 62.5t65 25.5t64.5 -25.5t26.5 -62.5t-26.5 -62.5t-64.5 -25.5zM623 149v-149h-589v80l337 451h-320v149h566v-80l-323 -451h329z" />
    <glyph glyph-name="zdotaccent" unicode="&#x17c;" horiz-adv-x="512" 
d="M256 550q-38 0 -65 25.5t-27 62.5t27 62.5t65 25.5t64.5 -25.5t26.5 -62.5t-26.5 -62.5t-64.5 -25.5zM483 399l-221 -265h221v-134h-453v79l228 271h-224v135h449v-86z" />
    <glyph glyph-name="Zcaron" unicode="&#x17d;" horiz-adv-x="658" 
d="M251 740l-116 160h142l53 -66l51 66h142l-116 -160h-156zM623 149v-149h-589v80l337 451h-320v149h566v-80l-323 -451h329z" />
    <glyph glyph-name="zcaron" unicode="&#x17e;" horiz-adv-x="512" 
d="M177 551l-116 160h142l53 -66l51 66h142l-116 -160h-156zM483 399l-221 -265h221v-134h-453v79l228 271h-224v135h449v-86z" />
    <glyph glyph-name="florin" unicode="&#x192;" horiz-adv-x="591" 
d="M463 538q-72 0 -84 -80l-10 -73h154v-129h-172l-21 -151q-15 -108 -70 -168t-146 -60q-57 0 -129 19l22 138q41 -9 74 -9q74 0 84 79l21 152h-122v129h140l10 73q15 108 70 167.5t146 59.5q61 0 129 -18l-21 -138q-43 9 -75 9z" />
    <glyph glyph-name="Acaron" unicode="&#x1cd;" horiz-adv-x="763" 
d="M303 740l-116 160h142l53 -66l51 66h142l-116 -160h-156zM525 117h-288l-45 -117h-180l289 684h161l288 -684h-179zM469 261l-88 226l-88 -226h176z" />
    <glyph glyph-name="acaron" unicode="&#x1ce;" horiz-adv-x="624" 
d="M245 551l-116 160h142l53 -66l51 66h142l-116 -160h-156zM569 485v-485h-162v27q-58 -37 -133 -37q-99 0 -170 73t-71 180t71 180t170 73q75 0 133 -37v26h162zM306 123q62 0 101 45v150q-39 46 -101 46q-49 0 -81.5 -35t-32.5 -86t32.5 -85.5t81.5 -34.5z" />
    <glyph glyph-name="Scommaaccent" unicode="&#x218;" horiz-adv-x="676" 
d="M337 695q46 0 90.5 -10t89 -33.5t75 -70.5t36.5 -112h-170q-15 86 -110 86q-44 0 -70.5 -18t-26.5 -50q0 -27 19 -41t59 -23l95 -22q101 -22 153 -66.5t52 -127.5q0 -102 -77 -161.5t-205 -59.5q-124 0 -210 60.5t-97 179.5h169q8 -45 45.5 -70.5t97.5 -25.5
q47 0 71.5 16t24.5 44q0 44 -72 58l-112 25q-101 22 -149 70.5t-48 129.5q0 101 74.5 161.5t195.5 60.5zM254 -274l41 83q-48 20 -48 67q0 33 25 56.5t60 23.5t59.5 -23.5t24.5 -56.5q0 -23 -13 -47t-66 -103h-83z" />
    <glyph glyph-name="scommaaccent" unicode="&#x219;" horiz-adv-x="521" 
d="M22 167l144 -1q10 -61 93 -61q69 0 69 34q0 27 -47 34l-98 17q-66 11 -104 47.5t-38 98.5q0 76 59 119t157 43q57 0 104 -14.5t83.5 -54t39.5 -99.5h-144q-2 27 -24.5 40.5t-57.5 13.5q-30 0 -45.5 -10t-15.5 -25q0 -29 50 -38l91 -15q151 -28 151 -147q0 -80 -63.5 -122
t-163.5 -42q-102 0 -167.5 45t-72.5 137zM167 -274l41 83q-48 20 -48 67q0 33 25 56.5t60 23.5t59.5 -23.5t24.5 -56.5q0 -23 -13 -47t-66 -103h-83z" />
    <glyph glyph-name="uni021A" unicode="&#x21a;" horiz-adv-x="648" 
d="M625 529h-216v-529h-169v529h-217v151h602v-151zM307 -44q35 0 59.5 -23.5t24.5 -56.5q0 -23 -13 -47t-66 -103h-83l41 83q-48 20 -48 67q0 33 25 56.5t60 23.5z" />
    <glyph glyph-name="uni021B" unicode="&#x21b;" horiz-adv-x="470" 
d="M426 146l18 -137q-76 -24 -147 -24q-88 0 -141.5 59.5t-53.5 157.5v144h-95v139h95v165h162v-165h165v-139h-165v-139q0 -73 76 -73q24 0 86 12zM256 -44q35 0 59.5 -23.5t24.5 -56.5q0 -23 -13 -47t-66 -103h-83l41 83q-48 20 -48 67q0 33 25 56.5t60 23.5z" />
    <glyph glyph-name="circumflex" unicode="&#x2c6;" 
d="M301 619l-53 -66h-141l117 164h153l116 -164h-141z" />
    <glyph glyph-name="caron" unicode="&#x2c7;" 
d="M494 713l-116 -160h-156l-116 160h142l53 -66l51 66h142z" />
    <glyph glyph-name="breve" unicode="&#x2d8;" 
d="M360 710h115q0 -80 -48 -124.5t-127 -44.5t-127 44.5t-48 124.5h115q0 -32 16.5 -48.5t43.5 -16.5q26 0 43 16.5t17 48.5z" />
    <glyph glyph-name="dotaccent" unicode="&#x2d9;" 
d="M300 550q-38 0 -65 25.5t-27 62.5t27 62.5t65 25.5t64.5 -25.5t26.5 -62.5t-26.5 -62.5t-64.5 -25.5z" />
    <glyph glyph-name="ring" unicode="&#x2da;" 
d="M298 779q55 0 89.5 -31.5t34.5 -83.5t-34.5 -84t-89.5 -32t-89.5 32t-34.5 84t34.5 83.5t89.5 31.5zM298 620q20 0 32 12t12 32q0 19 -12 30.5t-32 11.5t-32 -11.5t-12 -30.5q0 -20 12 -32t32 -12z" />
    <glyph glyph-name="ogonek" unicode="&#x2db;" 
d="M352 70l19 -62q-60 -12 -60 -40t50 -28q20 0 47 7l15 -120q-28 -14 -81 -14q-72 0 -118 34t-46 93q0 46 45 83.5t129 46.5z" />
    <glyph glyph-name="tilde" unicode="&#x2dc;" 
d="M378 705h119q0 -52 -19.5 -87.5t-49 -49t-61.5 -12.5t-59 17l-38 22q-22 11 -31 3t-9 -27h-119q0 52 19.5 87t49 48.5t61.5 12.5t59 -16l38 -22q22 -11 31 -3t9 27z" />
    <glyph glyph-name="hungarumlaut" unicode="&#x2dd;" 
d="M352 718l-73 -160h-124l53 160h144zM516 718l-73 -160h-124l53 160h144z" />
    <glyph glyph-name="uni0326" unicode="&#x326;" horiz-adv-x="0" 
d="M217 -274l41 83q-48 20 -48 67q0 33 25 56.5t60 23.5t59.5 -23.5t24.5 -56.5q0 -23 -13 -47t-66 -103h-83z" />
    <glyph glyph-name="Wgrave" unicode="&#x1e80;" horiz-adv-x="1080" 
d="M478 750l-100 160h171l80 -160h-151zM1060 680l-220 -684h-163l-137 415l-137 -415h-163l-220 684h179l127 -423l144 421v2h140l144 -422l127 422h179z" />
    <glyph glyph-name="wgrave" unicode="&#x1e81;" horiz-adv-x="810" 
d="M335 557l-100 160h171l80 -160h-151zM796 485l-166 -485h-148l-77 250l-78 -250h-147l-167 485h170l76 -260l82 260h128l82 -258l76 258h169z" />
    <glyph glyph-name="Wacute" unicode="&#x1e82;" horiz-adv-x="1080" 
d="M618 750h-151l80 160h171zM1060 680l-220 -684h-163l-137 415l-137 -415h-163l-220 684h179l127 -423l144 421v2h140l144 -422l127 422h179z" />
    <glyph glyph-name="wacute" unicode="&#x1e83;" horiz-adv-x="810" 
d="M482 557h-151l80 160h171zM796 485l-166 -485h-148l-77 250l-78 -250h-147l-167 485h170l76 -260l82 260h128l82 -258l76 258h169z" />
    <glyph glyph-name="Wdieresis" unicode="&#x1e84;" horiz-adv-x="1080" 
d="M426 743q-38 0 -65 25.5t-27 62.5t27 62.5t65 25.5t64.5 -25.5t26.5 -62.5t-26.5 -62.5t-64.5 -25.5zM655 743q-38 0 -65 25.5t-27 62.5t27 62.5t65 25.5t64.5 -25.5t26.5 -62.5t-26.5 -62.5t-64.5 -25.5zM1060 680l-220 -684h-163l-137 415l-137 -415h-163l-220 684h179
l127 -423l144 421v2h140l144 -422l127 422h179z" />
    <glyph glyph-name="wdieresis" unicode="&#x1e85;" horiz-adv-x="810" 
d="M291 550q-38 0 -65 25.5t-27 62.5t27 62.5t65 25.5t64.5 -25.5t26.5 -62.5t-26.5 -62.5t-64.5 -25.5zM520 550q-38 0 -65 25.5t-27 62.5t27 62.5t65 25.5t64.5 -25.5t26.5 -62.5t-26.5 -62.5t-64.5 -25.5zM796 485l-166 -485h-148l-77 250l-78 -250h-147l-167 485h170
l76 -260l82 260h128l82 -258l76 258h169z" />
    <glyph glyph-name="Ygrave" unicode="&#x1ef2;" horiz-adv-x="719" 
d="M297 750l-100 160h171l80 -160h-151zM713 680l-268 -475v-205h-170v205l-269 475h187l166 -296l167 296h187z" />
    <glyph glyph-name="ygrave" unicode="&#x1ef3;" horiz-adv-x="641" 
d="M254 557l-100 160h171l80 -160h-151zM624 485l-299 -709h-170l92 218l-230 491h172l139 -299l126 299h170z" />
    <glyph glyph-name="endash" unicode="&#x2013;" horiz-adv-x="690" 
d="M594 182v155h-497v-155h497z" />
    <glyph glyph-name="emdash" unicode="&#x2014;" horiz-adv-x="1069" 
d="M972 182v155h-875v-155h875z" />
    <glyph glyph-name="quoteleft" unicode="&#x2018;" horiz-adv-x="234" 
d="M207 679l-52 -111q52 -22 52 -72q0 -36 -26 -61t-64 -25t-64 25t-26 61q0 19 5 34t25 49l60 100h90z" />
    <glyph glyph-name="quoteright" unicode="&#x2019;" horiz-adv-x="234" 
d="M27 422l52 111q-52 22 -52 72q0 36 26 61t64 25t64 -25t26 -61q0 -19 -5 -34t-25 -49l-60 -100h-90z" />
    <glyph glyph-name="quotesinglbase" unicode="&#x201a;" horiz-adv-x="234" 
d="M27 -113l52 111q-52 22 -52 73q0 35 26.5 60t63.5 25q38 0 64 -24.5t26 -61.5q0 -32 -30 -83l-60 -100h-90z" />
    <glyph glyph-name="quotedblleft" unicode="&#x201c;" horiz-adv-x="441" 
d="M207 679l-52 -111q52 -22 52 -72q0 -36 -26 -61t-64 -25t-64 25t-26 61q0 19 5 34t25 49l60 100h90zM414 679l-52 -111q51 -22 51 -72q0 -36 -26 -61t-63 -25q-38 0 -64.5 25t-26.5 61q0 31 31 83l60 100h90z" />
    <glyph glyph-name="quotedblright" unicode="&#x201d;" horiz-adv-x="441" 
d="M27 422l52 111q-52 22 -52 72q0 36 26 61t64 25t64 -25t26 -61q0 -19 -5 -34t-25 -49l-60 -100h-90zM234 422l51 111q-51 23 -51 72q0 36 26 61t64 25t64 -25t26 -61q0 -19 -5 -34t-26 -49l-59 -100h-90z" />
    <glyph glyph-name="quotedblbase" unicode="&#x201e;" horiz-adv-x="443" 
d="M27 -113l52 111q-52 22 -52 73q0 35 26.5 60t63.5 25q38 0 64 -24.5t26 -61.5q0 -32 -30 -83l-60 -100h-90zM236 -113l52 111q-52 22 -52 73q0 35 26.5 60t63.5 25q38 0 64 -24.5t26 -61.5q0 -32 -30 -83l-60 -100h-90z" />
    <glyph glyph-name="dagger" unicode="&#x2020;" horiz-adv-x="403" 
d="M251 509v-212h-99v212h-112v98h112v112h99v-112h112v-98h-112z" />
    <glyph glyph-name="daggerdbl" unicode="&#x2021;" horiz-adv-x="403" 
d="M251 483h112v-98h-112v-88h-99v88h-112v98h112v52h-112v98h112v86h99v-86h112v-98h-112v-52z" />
    <glyph glyph-name="bullet" unicode="&#x2022;" horiz-adv-x="358" 
d="M178 146q-61 0 -106 45t-45 106t45 106t106 45q62 0 107.5 -45t45.5 -106t-45.5 -106t-107.5 -45z" />
    <glyph glyph-name="ellipsis" unicode="&#x2026;" horiz-adv-x="739" 
d="M118 -18q-38 0 -64.5 25.5t-26.5 62.5t26.5 62t64.5 25t64.5 -25t26.5 -62t-26.5 -62.5t-64.5 -25.5zM367 -18q-37 0 -63.5 25.5t-26.5 62.5q0 36 26.5 61.5t63.5 25.5q38 0 65 -25.5t27 -61.5q0 -37 -27 -62.5t-65 -25.5zM621 -18q-38 0 -64.5 25.5t-26.5 62.5t26.5 62
t64.5 25t64.5 -25t26.5 -62t-26.5 -62.5t-64.5 -25.5z" />
    <glyph glyph-name="perthousand" unicode="&#x2030;" horiz-adv-x="1554" 
d="M270 695q88 0 146.5 -56t58.5 -144t-58.5 -144.5t-146.5 -56.5t-146.5 56.5t-58.5 144.5t58.5 144t146.5 56zM366 0h-108l454 680h108zM271 400q39 0 66.5 26.5t27.5 68.5t-27.5 68.5t-66.5 26.5q-40 0 -67.5 -26.5t-27.5 -68.5t27.5 -68.5t67.5 -26.5zM820 386
q88 0 146.5 -56t58.5 -144t-58.5 -144.5t-146.5 -56.5t-146.5 56.5t-58.5 144.5t58.5 144t146.5 56zM1284 386q88 0 146.5 -56t58.5 -144t-58.5 -144.5t-146.5 -56.5t-146.5 56.5t-58.5 144.5t58.5 144t146.5 56zM820 90q39 0 67 27t28 69q0 41 -28 67.5t-67 26.5
t-66.5 -26.5t-27.5 -67.5q0 -42 27.5 -69t66.5 -27zM1283 90q39 0 67 27t28 69q0 41 -28 67.5t-67 26.5t-66.5 -26.5t-27.5 -67.5q0 -42 27.5 -69t66.5 -27z" />
    <glyph glyph-name="guilsinglleft" unicode="&#x2039;" horiz-adv-x="283" 
d="M261 413l-95 -161l95 -161h-144l-95 161l95 161h144z" />
    <glyph glyph-name="guilsinglright" unicode="&#x203a;" horiz-adv-x="286" 
d="M264 252l-95 -161h-144l95 161l-95 161h144z" />
    <glyph glyph-name="fraction" unicode="&#x2044;" horiz-adv-x="533" 
d="M94 0h-109l454 680h109z" />
    <glyph glyph-name="zerosuperior" unicode="&#x2070;" horiz-adv-x="455" 
d="M227 702q93 0 148 -60.5t55 -156.5q0 -95 -55 -155.5t-148 -60.5q-92 0 -147 60.5t-55 155.5t55 156t147 61zM227 373q42 0 65 31.5t23 80.5t-23 81t-65 32t-64.5 -32t-22.5 -81t22.5 -80.5t64.5 -31.5z" />
    <glyph glyph-name="foursuperior" unicode="&#x2074;" horiz-adv-x="420" 
d="M394 349h-48v-68h-114v68h-209v75l110 268h116l-92 -243h75v93h114v-93h48v-100z" />
    <glyph glyph-name="fivesuperior" unicode="&#x2075;" horiz-adv-x="397" 
d="M169 550h40q73 0 111.5 -36.5t38.5 -97.5q0 -64 -44.5 -104t-117.5 -40q-70 0 -114.5 36t-50.5 96h113q11 -36 53 -36q23 0 37.5 12.5t14.5 32.5q0 46 -54 46h-136v233h280v-99h-171v-43z" />
    <glyph glyph-name="sixsuperior" unicode="&#x2076;" horiz-adv-x="396" 
d="M300 692l-76 -120q67 -7 106 -48t39 -98q0 -65 -47.5 -109.5t-123.5 -44.5q-75 0 -123 44.5t-48 106.5q0 46 38 105l100 164h135zM198 367q25 0 42 16t17 39q0 25 -16.5 40.5t-42.5 15.5t-43 -15q-16 -24 -16 -40q0 -24 16.5 -40t42.5 -16z" />
    <glyph glyph-name="sevensuperior" unicode="&#x2077;" horiz-adv-x="347" 
d="M330 692v-67l-155 -344h-131l140 304h-167v107h313z" />
    <glyph glyph-name="eightsuperior" unicode="&#x2078;" horiz-adv-x="408" 
d="M315 496q62 -35 62 -98q0 -59 -46 -94t-127 -35t-126.5 35t-45.5 94q0 64 61 98q-45 29 -45 81q0 54 43.5 87.5t112.5 33.5t112.5 -33.5t43.5 -87.5q0 -52 -45 -81zM204 612q-20 0 -33 -11.5t-13 -30.5t13 -31t33 -12t33 12t13 31t-13 30.5t-33 11.5zM204 362q22 0 36 12
t14 32t-14 32t-36 12t-35.5 -12t-13.5 -32t13.5 -32t35.5 -12z" />
    <glyph glyph-name="ninesuperior" unicode="&#x2079;" horiz-adv-x="396" 
d="M198 699q75 0 123 -44.5t48 -106.5q0 -46 -38 -105l-100 -164h-135l76 120q-67 7 -106 48t-39 98q0 65 47.5 109.5t123.5 44.5zM198 493q26 0 43 15q16 24 16 40q0 24 -16.5 40t-42.5 16q-25 0 -42 -16t-17 -39q0 -25 16.5 -40.5t42.5 -15.5z" />
    <glyph glyph-name="zeroinferior" unicode="&#x2080;" horiz-adv-x="455" 
d="M227 244q93 0 148 -60.5t55 -156.5q0 -95 -55 -155.5t-148 -60.5q-92 0 -147 60.5t-55 155.5t55 156t147 61zM227 -85q42 0 65 31.5t23 80.5t-23 81t-65 32t-64.5 -32t-22.5 -81t22.5 -80.5t64.5 -31.5z" />
    <glyph glyph-name="oneinferior" unicode="&#x2081;" horiz-adv-x="341" 
d="M336 -83v-97h-311v97h102v192l-97 -27v103l141 46h67v-314h98z" />
    <glyph glyph-name="twoinferior" unicode="&#x2082;" horiz-adv-x="373" 
d="M345 -83v-97h-311v57l139 156q28 32 37.5 45.5t9.5 26.5q0 14 -9.5 22.5t-25.5 8.5q-41 0 -43 -41h-110q1 66 40.5 105.5t112.5 39.5q72 0 114 -36.5t42 -89.5q0 -29 -16.5 -60t-59.5 -81l-48 -56h128z" />
    <glyph glyph-name="threeinferior" unicode="&#x2083;" horiz-adv-x="384" 
d="M304 26q49 -28 49 -85t-44.5 -94t-116.5 -37q-71 0 -113 36t-50 100h112q11 -39 53 -39q22 0 34.5 10t12.5 26q0 36 -57 36h-33v88h33q23 0 36.5 10t13.5 27q0 36 -42 36q-38 0 -42 -40h-112q4 64 44 100t108 36q69 0 110 -35.5t41 -93.5q0 -50 -37 -81z" />
    <glyph glyph-name="fourinferior" unicode="&#x2084;" horiz-adv-x="420" 
d="M394 -112h-48v-68h-114v68h-209v75l110 268h116l-92 -243h75v93h114v-93h48v-100z" />
    <glyph glyph-name="fiveinferior" unicode="&#x2085;" horiz-adv-x="397" 
d="M169 89h40q73 0 111.5 -36.5t38.5 -97.5q0 -64 -44.5 -104t-117.5 -40q-70 0 -114.5 36t-50.5 96h113q11 -36 53 -36q23 0 37.5 12.5t14.5 32.5q0 46 -54 46h-136v233h280v-99h-171v-43z" />
    <glyph glyph-name="sixinferior" unicode="&#x2086;" horiz-adv-x="396" 
d="M300 231l-76 -120q67 -7 106 -48t39 -98q0 -65 -47.5 -109.5t-123.5 -44.5q-75 0 -123 44.5t-48 106.5q0 46 38 105l100 164h135zM198 -94q25 0 42 16t17 39q0 25 -16.5 40.5t-42.5 15.5t-43 -15q-16 -24 -16 -40q0 -24 16.5 -40t42.5 -16z" />
    <glyph glyph-name="seveninferior" unicode="&#x2087;" horiz-adv-x="347" 
d="M330 231v-67l-155 -344h-131l140 304h-167v107h313z" />
    <glyph glyph-name="eightinferior" unicode="&#x2088;" horiz-adv-x="408" 
d="M315 38q62 -35 62 -98q0 -59 -46 -94t-127 -35t-126.5 35t-45.5 94q0 64 61 98q-45 29 -45 81q0 54 43.5 87.5t112.5 33.5t112.5 -33.5t43.5 -87.5q0 -52 -45 -81zM204 154q-20 0 -33 -11.5t-13 -30.5t13 -31t33 -12t33 12t13 31t-13 30.5t-33 11.5zM204 -96q22 0 36 12
t14 32t-14 32t-36 12t-35.5 -12t-13.5 -32t13.5 -32t35.5 -12z" />
    <glyph glyph-name="nineinferior" unicode="&#x2089;" horiz-adv-x="396" 
d="M198 241q75 0 123 -44.5t48 -106.5q0 -46 -38 -105l-100 -164h-135l76 120q-67 7 -106 48t-39 98q0 65 47.5 109.5t123.5 44.5zM198 35q26 0 43 15q16 24 16 40q0 24 -16.5 40t-42.5 16q-25 0 -42 -16t-17 -39q0 -25 16.5 -40.5t42.5 -15.5z" />
    <glyph glyph-name="Euro" unicode="&#x20ac;" horiz-adv-x="847" 
d="M461 144q67 0 111 36.5t58 101.5h173q-16 -133 -109 -214.5t-232 -81.5q-121 0 -212.5 63t-127.5 169h-87v89h68q-1 11 -1 33v18h-67v89h82q33 112 127 179.5t218 67.5q139 0 232 -81.5t109 -214.5h-173q-14 65 -58 101.5t-111 36.5q-109 0 -161 -89h229l-23 -89h-232
l-1 -18q0 -11 2 -33h219l-23 -89h-161q53 -74 151 -74z" />
    <glyph glyph-name="uni2116" unicode="&#x2116;" horiz-adv-x="1369" 
d="M1049 176q-114 0 -188.5 73.5t-74.5 184.5q0 110 74.5 182t188.5 72t188.5 -72t74.5 -182q0 -111 -74.5 -184.5t-188.5 -73.5zM517 680h169v-680h-131l-326 373v-373h-169v680h129l328 -383v383zM1049 547q-49 0 -79.5 -33t-30.5 -81q0 -49 31 -83t79 -34t78.5 34
t30.5 83q0 48 -30 81t-79 33zM808 120h482v-119h-482v119z" />
    <glyph glyph-name="uni2117" unicode="&#x2117;" horiz-adv-x="815" 
d="M408 695q150 0 257 -102t107 -253t-107 -253t-257 -102t-257 102t-107 253t107 253t257 102zM407 605q-109 0 -189 -77t-80 -188t80 -188t189 -77q110 0 190 77t80 188t-80 188t-190 77zM295 501h138q58 0 93 -31t35 -81t-35 -79t-95 -29h-49v-83h-87v303zM382 424v-70
h47q41 0 41 36q0 15 -11 24.5t-30 9.5h-47z" />
    <glyph glyph-name="trademark" unicode="&#x2122;" horiz-adv-x="703" 
d="M294 679v-80h-91v-212h-86v212h-90v80h267zM662 679v-292h-86v131l-64 -94v-1h-45v1l-65 95l1 -132h-85v292h64l108 -149l107 149h65z" />
    <glyph glyph-name="oneeighth" unicode="&#x215b;" horiz-adv-x="976" 
d="M25 269v97h102v192l-97 -27v103l141 46h67v-314h98v-97h-311zM766 680l-454 -680h-108l454 680h108zM882 218q62 -34 62 -98q0 -59 -45.5 -94t-126.5 -35t-127 35t-46 94q0 63 62 98q-45 31 -45 81q0 54 43.5 87.5t112.5 33.5t112 -33.5t43 -87.5q0 -53 -45 -81zM772 334
q-20 0 -33 -11.5t-13 -30.5t13 -31t33 -12t33 12t13 31t-13 30.5t-33 11.5zM772 84q22 0 35.5 12t13.5 32t-13.5 32t-35.5 12t-36 -12t-14 -32t14 -32t36 -12z" />
    <glyph glyph-name="threeeighths" unicode="&#x215c;" horiz-adv-x="959" 
d="M355 394q0 -57 -44.5 -94t-116.5 -37q-71 0 -113 36t-50 100h112q11 -39 53 -39q22 0 34.5 10t12.5 26q0 36 -57 36h-33v88h33q23 0 36.5 10t13.5 27q0 36 -42 36q-38 0 -42 -40h-112q4 64 44 100t108 36q69 0 110 -35.5t41 -93.5q0 -50 -37 -81q49 -28 49 -85zM749 680
l-454 -680h-109l454 680h109zM865 218q62 -34 62 -98q0 -59 -45.5 -94t-126.5 -35t-127 35t-46 94q0 64 62 98q-45 29 -45 81q0 54 43.5 87.5t112.5 33.5t112 -33.5t43 -87.5q0 -52 -45 -81zM755 334q-20 0 -33.5 -11.5t-13.5 -30.5t13 -31t34 -12q20 0 33 12t13 31
t-13 30.5t-33 11.5zM755 84q22 0 35.5 12t13.5 32t-13.5 32t-35.5 12t-36 -12t-14 -32t14 -32t36 -12z" />
    <glyph glyph-name="fiveeighths" unicode="&#x215d;" horiz-adv-x="965" 
d="M359 404q0 -64 -44.5 -104t-117.5 -40q-70 0 -114.5 36t-50.5 96h113q11 -36 53 -36q23 0 37.5 12.5t14.5 32.5q0 46 -54 46h-136v233h280v-99h-171v-43h40q73 0 111.5 -36.5t38.5 -97.5zM756 680l-454 -680h-109l454 680h109zM872 218q62 -35 62 -98q0 -59 -46 -94
t-127 -35t-126.5 35t-45.5 94q0 64 61 98q-45 29 -45 81q0 54 43.5 87.5t112.5 33.5t112.5 -33.5t43.5 -87.5q0 -52 -45 -81zM761 334q-20 0 -33 -11.5t-13 -30.5t13 -31t33 -12t33 12t13 31t-13 30.5t-33 11.5zM761 84q22 0 36 12t14 32t-14 32t-36 12t-35.5 -12t-13.5 -32
t13.5 -32t35.5 -12z" />
    <glyph glyph-name="seveneighths" unicode="&#x215e;" horiz-adv-x="875" 
d="M57 269l140 304h-167v107h313v-67l-155 -344h-131zM666 680l-454 -680h-109l454 680h109zM782 218q62 -35 62 -98q0 -59 -46 -94t-127 -35t-126.5 35t-45.5 94q0 64 61 98q-45 29 -45 81q0 54 43.5 87.5t112.5 33.5t112.5 -33.5t43.5 -87.5q0 -52 -45 -81zM671 334
q-20 0 -33 -11.5t-13 -30.5t13 -31t33 -12t33 12t13 31t-13 30.5t-33 11.5zM671 84q22 0 36 12t14 32t-14 32t-36 12t-35.5 -12t-13.5 -32t13.5 -32t35.5 -12z" />
    <glyph glyph-name="arrowleft" unicode="&#x2190;" horiz-adv-x="766" 
d="M303 267l177 -173l-103 -99l-343 346l343 346l103 -99l-176 -173h422v-148h-423z" />
    <glyph glyph-name="arrowup" unicode="&#x2191;" horiz-adv-x="783" 
d="M318 423l-173 -177l-100 103l346 343l347 -343l-100 -103l-172 176v-422h-148v423z" />
    <glyph glyph-name="arrowright" unicode="&#x2192;" horiz-adv-x="766" 
d="M40 415h422l-176 173l103 99l343 -346l-343 -346l-103 99l177 173h-423v148z" />
    <glyph glyph-name="arrowdown" unicode="&#x2193;" horiz-adv-x="783" 
d="M466 680v-422l172 176l100 -103l-347 -343l-346 343l100 103l173 -177v423h148z" />
    <glyph glyph-name="arrowupleft" unicode="&#x2196;" horiz-adv-x="796" 
d="M667 -2l-435 435v-243h-142v490h490v-142h-244l435 -436z" />
    <glyph glyph-name="arrowupright" unicode="&#x2197;" horiz-adv-x="796" 
d="M460 538h-244v142h490v-490h-142v243l-435 -435l-104 104z" />
    <glyph glyph-name="arrowdownright" unicode="&#x2198;" horiz-adv-x="796" 
d="M129 682l435 -435v243h142v-490h-490v142h244l-435 436z" />
    <glyph glyph-name="arrowdownleft" unicode="&#x2199;" horiz-adv-x="796" 
d="M336 142h244v-142h-490v490h142v-243l435 435l104 -104z" />
    <glyph glyph-name="minus" unicode="&#x2212;" horiz-adv-x="669" 
d="M97 392h475v-128h-475v128z" />
    <glyph glyph-name="R.ss02" horiz-adv-x="701" 
d="M255 197h-26v-197h-169v680h294q131 0 208 -64.5t77 -174.5q0 -84 -47.5 -145t-131.5 -85l224 -211h-220zM229 531v-182h122q54 0 86.5 25t32.5 67q0 41 -32.5 65.5t-86.5 24.5h-122z" />
    <glyph glyph-name="Racute.ss02" horiz-adv-x="701" 
d="M405 750h-151l80 160h171zM255 197h-26v-197h-169v680h294q132 0 208.5 -64.5t76.5 -174.5q0 -84 -47 -145t-132 -85l224 -211h-220zM229 531v-182h122q54 0 87 25t33 67q0 41 -33 65.5t-87 24.5h-122z" />
    <glyph glyph-name="Rcaron.ss02" horiz-adv-x="701" 
d="M249 740l-116 160h142l53 -66l51 66h142l-116 -160h-156zM255 197h-26v-197h-169v680h294q132 0 208.5 -64.5t76.5 -174.5q0 -84 -47 -145t-132 -85l224 -211h-220zM229 531v-182h122q54 0 87 25t33 67q0 41 -33 65.5t-87 24.5h-122z" />
    <glyph glyph-name="Rcommaaccent.ss02" horiz-adv-x="701" 
d="M684 0h-220l-209 197h-26v-197h-169v680h294q132 0 208.5 -64.5t76.5 -174.5q0 -84 -47 -145t-132 -85zM229 531v-182h122q54 0 87 25t33 67q0 41 -33 65.5t-87 24.5h-122zM345 -44q35 0 59.5 -23.5t24.5 -56.5q0 -23 -13 -47t-66 -103h-83l41 83q-48 20 -48 67
q0 33 25 56.5t60 23.5z" />
    <glyph glyph-name="Q.ss03" horiz-adv-x="808" 
d="M404 694q154 0 257.5 -102.5t103.5 -251.5t-103.5 -251.5t-257.5 -102.5q-153 0 -256.5 102.5t-103.5 251.5t103.5 251.5t256.5 102.5zM404 143q81 0 135 57.5t54 139.5t-54 139.5t-135 57.5t-135 -57.5t-54 -139.5t54 -139.5t135 -57.5zM725 -93l-17 -143
q-161 19 -332 69l13 113z" />
    <glyph glyph-name="i.loclTRK" horiz-adv-x="279" 
d="M139 561q-40 0 -67.5 26t-27.5 65t27.5 65.5t67.5 26.5q39 0 67 -26.5t28 -65.5t-28 -65t-67 -26zM221 485v-485h-162v485h162z" />
    <glyph glyph-name="germandbls.case" horiz-adv-x="1323" 
d="M337 695q46 0 90.5 -10t89 -33.5t75 -70.5t36.5 -112h-170q-15 86 -110 86q-44 0 -70.5 -18t-26.5 -50q0 -27 19 -41t59 -23l95 -22q101 -22 153 -66.5t52 -127.5q0 -102 -77 -161.5t-205 -59.5q-124 0 -210 60.5t-97 179.5h169q8 -45 45.5 -70.5t97.5 -25.5
q47 0 71.5 16t24.5 44q0 44 -72 58l-112 25q-101 22 -149 70.5t-48 129.5q0 101 74.5 161.5t195.5 60.5zM983 695q46 0 90.5 -10t89 -33.5t75 -70.5t36.5 -112h-170q-15 86 -110 86q-44 0 -70.5 -18t-26.5 -50q0 -27 19 -41t59 -23l95 -22q101 -22 153 -66.5t52 -127.5
q0 -102 -77 -161.5t-205 -59.5q-124 0 -210 60.5t-97 179.5h169q8 -45 45.5 -70.5t97.5 -25.5q47 0 71.5 16t24.5 44q0 44 -72 58l-112 25q-101 22 -149 70.5t-48 129.5q0 101 74.5 161.5t195.5 60.5z" />
    <glyph glyph-name="l.ss01" horiz-adv-x="382" 
d="M218 710v-523q0 -29 12.5 -42.5t41.5 -13.5q26 0 68 10l18 -136q-70 -20 -121 -20q-86 0 -134 48.5t-48 135.5v541h163z" />
    <glyph glyph-name="lacute.ss01" horiz-adv-x="382" 
d="M312 942l-100 -160h-151l80 160h171zM217 710v-523q0 -56 55 -56q26 0 68 10l18 -136q-70 -20 -122 -20q-86 0 -133.5 48.5t-47.5 135.5v541h162z" />
    <glyph glyph-name="lcaron.ss01" horiz-adv-x="382" 
d="M217 710v-523q0 -56 55 -56q26 0 68 10l18 -136q-70 -20 -122 -20q-86 0 -133.5 48.5t-47.5 135.5v541h162zM428 710l-39 -204h-115l6 204h148z" />
    <glyph glyph-name="lcommaaccent.ss01" horiz-adv-x="382" 
d="M217 710v-523q0 -56 55 -56q26 0 68 10l18 -136q-70 -20 -122 -20q-86 0 -133.5 48.5t-47.5 135.5v541h162zM127 -274l41 83q-48 20 -48 67q0 33 25 56.5t60 23.5t59.5 -23.5t24.5 -56.5q0 -23 -13 -47t-66 -103h-83z" />
    <glyph glyph-name="ldot.ss01" horiz-adv-x="464" 
d="M217 710v-523q0 -56 55 -56q26 0 68 10l18 -136q-70 -20 -122 -20q-86 0 -133.5 48.5t-47.5 135.5v541h162zM346 256q-38 0 -65 25.5t-27 62.5t27 62.5t65 25.5t64.5 -25.5t26.5 -62.5t-26.5 -62.5t-64.5 -25.5z" />
    <glyph glyph-name="lslash.ss01" horiz-adv-x="382" 
d="M340 141l18 -136q-70 -20 -122 -20q-86 0 -133.5 48.5t-47.5 135.5v88l-53 -19v147l53 19v306h162v-247l61 22v-146l-61 -22v-130q0 -56 55 -56q26 0 68 10z" />
    <glyph glyph-name="y.ss04" horiz-adv-x="611" 
d="M555 485v-477q0 -112 -70 -176t-186 -64q-111 0 -182 57.5t-77 152.5h160q5 -33 31.5 -53t67.5 -20q42 0 68 26t26 74v60q-61 -47 -133 -47q-93 0 -150 60t-57 163v244h163v-218q0 -50 23.5 -76t64.5 -26q47 0 89 48v272h162z" />
    <glyph glyph-name="yacute.ss04" horiz-adv-x="611" 
d="M382 557h-151l80 160h171zM555 485v-477q0 -112 -70 -176t-186 -64q-111 0 -182 57.5t-77 152.5h160q5 -33 31.5 -53t67.5 -20q42 0 68 26t26 74v60q-61 -47 -133 -47q-93 0 -150 60t-57 163v244h162v-218q0 -50 24 -76t65 -26q47 0 89 48v272h162z" />
    <glyph glyph-name="ycircumflex.ss04" horiz-adv-x="611" 
d="M253 550h-141l117 164h153l116 -164h-141l-51 66zM555 485v-477q0 -112 -70 -176t-186 -64q-111 0 -182 57.5t-77 152.5h160q5 -33 31.5 -53t67.5 -20q42 0 68 26t26 74v60q-61 -47 -133 -47q-93 0 -150 60t-57 163v244h162v-218q0 -50 24 -76t65 -26q47 0 89 48v272h162
z" />
    <glyph glyph-name="ydieresis.ss04" horiz-adv-x="611" 
d="M191 550q-38 0 -65 25.5t-27 62.5t27 62.5t65 25.5t64.5 -25.5t26.5 -62.5t-26.5 -62.5t-64.5 -25.5zM420 550q-38 0 -65 25.5t-27 62.5t27 62.5t65 25.5t64.5 -25.5t26.5 -62.5t-26.5 -62.5t-64.5 -25.5zM555 485v-477q0 -112 -70 -176t-186 -64q-111 0 -182 57.5
t-77 152.5h160q5 -33 31.5 -53t67.5 -20q42 0 68 26t26 74v60q-61 -47 -133 -47q-93 0 -150 60t-57 163v244h162v-218q0 -50 24 -76t65 -26q47 0 89 48v272h162z" />
    <glyph glyph-name="ygrave.ss04" horiz-adv-x="611" 
d="M236 557l-100 160h171l80 -160h-151zM555 485v-477q0 -112 -70 -176t-186 -64q-111 0 -182 57.5t-77 152.5h160q5 -33 31.5 -53t67.5 -20q42 0 68 26t26 74v60q-61 -47 -133 -47q-93 0 -150 60t-57 163v244h162v-218q0 -50 24 -76t65 -26q47 0 89 48v272h162z" />
    <glyph glyph-name="a.ss06" horiz-adv-x="555" 
d="M278 500q104 0 166 -56.5t62 -153.5v-290h-152v21q-62 -30 -129 -30q-91 0 -144 41.5t-53 114.5q0 68 51.5 105.5t142.5 37.5h132q0 36 -19.5 59.5t-57.5 23.5q-31 0 -51.5 -15t-23.5 -41h-155q4 89 70.5 136t160.5 47zM253 114q52 0 101 30v51h-123q-50 0 -50 -36
q0 -20 17.5 -32.5t54.5 -12.5z" />
    <glyph glyph-name="aacute.ss06" horiz-adv-x="555" 
d="M357 557h-151l80 160h171zM277 500q105 0 166.5 -56.5t61.5 -153.5v-290h-151v21q-62 -30 -129 -30q-91 0 -144 41.5t-53 114.5q0 68 51.5 105.5t142.5 37.5h132q0 36 -19.5 59.5t-57.5 23.5q-31 0 -51.5 -15t-24.5 -41h-154q4 89 70 136t160 47zM253 114q52 0 101 30v51
h-123q-51 0 -51 -36q0 -20 18 -32.5t55 -12.5z" />
    <glyph glyph-name="abreve.ss06" horiz-adv-x="555" 
d="M280 544q-79 0 -127 44.5t-48 124.5h115q0 -32 16.5 -48.5t43.5 -16.5q26 0 43 16.5t17 48.5h115q0 -80 -48 -124.5t-127 -44.5zM277 500q105 0 166.5 -56.5t61.5 -153.5v-290h-151v21q-62 -30 -129 -30q-91 0 -144 41.5t-53 114.5q0 68 51.5 105.5t142.5 37.5h132
q0 36 -19.5 59.5t-57.5 23.5q-31 0 -51.5 -15t-24.5 -41h-154q4 89 70 136t160 47zM253 114q52 0 101 30v51h-123q-51 0 -51 -36q0 -20 18 -32.5t55 -12.5z" />
    <glyph glyph-name="acaron.ss06" horiz-adv-x="555" 
d="M201 551l-116 160h142l53 -66l51 66h142l-116 -160h-156zM277 500q105 0 166.5 -56.5t61.5 -153.5v-290h-151v21q-62 -30 -129 -30q-91 0 -144 41.5t-53 114.5q0 68 51.5 105.5t142.5 37.5h132q0 36 -19.5 59.5t-57.5 23.5q-31 0 -51.5 -15t-24.5 -41h-154q4 89 70 136
t160 47zM253 114q52 0 101 30v51h-123q-51 0 -51 -36q0 -20 18 -32.5t55 -12.5z" />
    <glyph glyph-name="acircumflex.ss06" horiz-adv-x="555" 
d="M227 550h-141l117 164h153l116 -164h-141l-51 66zM277 500q105 0 166.5 -56.5t61.5 -153.5v-290h-151v21q-62 -30 -129 -30q-91 0 -144 41.5t-53 114.5q0 68 51.5 105.5t142.5 37.5h132q0 36 -19.5 59.5t-57.5 23.5q-31 0 -51.5 -15t-24.5 -41h-154q4 89 70 136t160 47z
M253 114q52 0 101 30v51h-123q-51 0 -51 -36q0 -20 18 -32.5t55 -12.5z" />
    <glyph glyph-name="adieresis.ss06" horiz-adv-x="555" 
d="M166 550q-38 0 -65 25.5t-27 62.5t27 62.5t65 25.5t64.5 -25.5t26.5 -62.5t-26.5 -62.5t-64.5 -25.5zM395 550q-38 0 -65 25.5t-27 62.5t27 62.5t65 25.5t64.5 -25.5t26.5 -62.5t-26.5 -62.5t-64.5 -25.5zM277 500q105 0 166.5 -56.5t61.5 -153.5v-290h-151v21
q-62 -30 -129 -30q-91 0 -144 41.5t-53 114.5q0 68 51.5 105.5t142.5 37.5h132q0 36 -19.5 59.5t-57.5 23.5q-31 0 -51.5 -15t-24.5 -41h-154q4 89 70 136t160 47zM253 114q52 0 101 30v51h-123q-51 0 -51 -36q0 -20 18 -32.5t55 -12.5z" />
    <glyph glyph-name="agrave.ss06" horiz-adv-x="555" 
d="M210 557l-100 160h171l80 -160h-151zM277 500q105 0 166.5 -56.5t61.5 -153.5v-290h-151v21q-62 -30 -129 -30q-91 0 -144 41.5t-53 114.5q0 68 51.5 105.5t142.5 37.5h132q0 36 -19.5 59.5t-57.5 23.5q-31 0 -51.5 -15t-24.5 -41h-154q4 89 70 136t160 47zM253 114
q52 0 101 30v51h-123q-51 0 -51 -36q0 -20 18 -32.5t55 -12.5z" />
    <glyph glyph-name="amacron.ss06" horiz-adv-x="555" 
d="M423 570h-286v124h286v-124zM277 500q105 0 166.5 -56.5t61.5 -153.5v-290h-151v21q-62 -30 -129 -30q-91 0 -144 41.5t-53 114.5q0 68 51.5 105.5t142.5 37.5h132q0 36 -19.5 59.5t-57.5 23.5q-31 0 -51.5 -15t-24.5 -41h-154q4 89 70 136t160 47zM253 114q52 0 101 30
v51h-123q-51 0 -51 -36q0 -20 18 -32.5t55 -12.5z" />
    <glyph glyph-name="aogonek.ss06" horiz-adv-x="555" 
d="M539 -61l15 -120q-28 -14 -81 -14q-72 0 -118 34t-46 93q0 47 45 83v6q-62 -30 -129 -30q-91 0 -144 41.5t-53 114.5q0 68 51.5 105.5t142.5 37.5h132q0 36 -19.5 59.5t-57.5 23.5q-31 0 -51.5 -15t-24.5 -41h-154q4 89 70 136t160 47q105 0 166.5 -56.5t61.5 -153.5
v-290h-3q-60 -12 -60 -40t50 -28q20 0 47 7zM253 114q52 0 101 30v51h-123q-51 0 -51 -36q0 -20 18 -32.5t55 -12.5z" />
    <glyph glyph-name="aring.ss06" horiz-adv-x="555" 
d="M280 548q-55 0 -89.5 32t-34.5 84t34.5 83.5t89.5 31.5t89.5 -31.5t34.5 -83.5t-34.5 -84t-89.5 -32zM280 706q-20 0 -32 -11.5t-12 -30.5q0 -20 12 -32t32 -12t32 12t12 32q0 19 -12 30.5t-32 11.5zM277 500q105 0 166.5 -56.5t61.5 -153.5v-290h-151v21
q-62 -30 -129 -30q-91 0 -144 41.5t-53 114.5q0 68 51.5 105.5t142.5 37.5h132q0 36 -19.5 59.5t-57.5 23.5q-31 0 -51.5 -15t-24.5 -41h-154q4 89 70 136t160 47zM253 114q52 0 101 30v51h-123q-51 0 -51 -36q0 -20 18 -32.5t55 -12.5z" />
    <glyph glyph-name="atilde.ss06" horiz-adv-x="555" 
d="M287 573l-38 22q-23 11 -31.5 3t-8.5 -27h-119q0 52 19.5 87t49 48.5t61.5 12.5t59 -16l38 -22q23 -11 31.5 -3t8.5 27h119q0 -52 -19.5 -87.5t-49 -49t-61.5 -12.5t-59 17zM277 500q105 0 166.5 -56.5t61.5 -153.5v-290h-151v21q-62 -30 -129 -30q-91 0 -144 41.5
t-53 114.5q0 68 51.5 105.5t142.5 37.5h132q0 36 -19.5 59.5t-57.5 23.5q-31 0 -51.5 -15t-24.5 -41h-154q4 89 70 136t160 47zM253 114q52 0 101 30v51h-123q-51 0 -51 -36q0 -20 18 -32.5t55 -12.5z" />
    <glyph glyph-name="zero.osf" horiz-adv-x="640" 
d="M321 553q125 0 205.5 -78.5t80.5 -204.5q0 -125 -80.5 -203.5t-205.5 -78.5q-126 0 -207 78.5t-81 203.5q0 126 81 204.5t207 78.5zM321 127q57 0 96 40t39 103t-39 103t-96 40q-58 0 -97.5 -40t-39.5 -103t39.5 -103t97.5 -40z" />
    <glyph glyph-name="one.osf" horiz-adv-x="531" 
d="M526 137v-137h-491v137h170v231l-160 -45v147l222 77h101v-410h158z" />
    <glyph glyph-name="two.osf" horiz-adv-x="572" 
d="M531 137v-137h-485v87l146 94q74 48 116 85.5t42 69.5q0 27 -18 45.5t-56 18.5q-37 0 -60 -22t-25 -60h-159q2 105 65.5 167.5t177.5 62.5q113 0 178 -59t65 -143q0 -62 -41 -111t-123 -98h177z" />
    <glyph glyph-name="three.osf" horiz-adv-x="578" 
d="M459 202q87 -48 87 -145q0 -93 -71 -152.5t-185 -59.5q-116 0 -180.5 57t-76.5 157h158q8 -38 32 -58t73 -20q41 0 67 21.5t26 54.5q0 35 -28.5 56.5t-72.5 21.5h-59v124h59q40 0 64.5 21.5t24.5 56.5t-22.5 56t-60.5 21t-62.5 -21.5t-27.5 -57.5h-157q6 98 71.5 156
t171.5 58q107 0 172 -57t65 -149t-68 -141z" />
    <glyph glyph-name="four.osf" horiz-adv-x="656" 
d="M622 0h-85v-120h-159v120h-346v105l185 455h162l-160 -419h159v187h159v-187h85v-141z" />
    <glyph glyph-name="five.osf" horiz-adv-x="611" 
d="M239 305h84q112 0 177.5 -62t65.5 -160q0 -104 -72 -169.5t-189 -65.5q-114 0 -185.5 58t-82.5 156h159q22 -78 109 -78q47 0 77 27t30 69q0 41 -31 66t-85 25h-212l1 372h449v-144h-294z" />
    <glyph glyph-name="six.osf" horiz-adv-x="624" 
d="M463 680l-129 -203q112 -7 182.5 -74.5t70.5 -165.5q0 -108 -77 -180t-198 -72t-197.5 72t-76.5 177q0 73 58 165l177 281h190zM312 120q50 0 83 33.5t33 77.5t-33 77t-83 33q-48 0 -80 -23l-4 -7q-33 -47 -33 -81q0 -44 33.5 -77t83.5 -33z" />
    <glyph glyph-name="seven.osf" horiz-adv-x="524" 
d="M506 540v-95l-261 -585h-184l240 529h-291v151h496z" />
    <glyph glyph-name="eight.osf" horiz-adv-x="623" 
d="M478 361q109 -54 109 -164q0 -97 -73 -154.5t-202 -57.5t-202 57.5t-73 154.5q0 110 109 164q-81 49 -81 138q0 87 69 141.5t178 54.5q108 0 177 -54.5t69 -141.5q0 -88 -80 -138zM311 573q-41 0 -67 -24t-26 -60t26 -60t67 -24t67.5 24.5t26.5 59.5q0 36 -26.5 60
t-67.5 24zM311 117q44 0 73.5 26.5t29.5 64.5t-29.5 63t-73.5 25t-73 -25t-29 -63q0 -39 29 -65t73 -26z" />
    <glyph glyph-name="nine.osf" horiz-adv-x="624" 
d="M312 559q121 0 197.5 -72t76.5 -177q0 -71 -58 -165l-177 -281h-191l130 203q-112 6 -182.5 74t-70.5 166q0 108 77 180t198 72zM392 226l4 7q33 47 33 81q0 44 -33.5 77t-83.5 33t-83 -33.5t-33 -77.5t32.5 -77t83.5 -33q48 0 80 23z" />
    <glyph glyph-name="zero.tf" horiz-adv-x="650" 
d="M323 695q144 0 224.5 -98t80.5 -257t-80.5 -257t-224.5 -98t-225 98.5t-81 256.5t81 256.5t225 98.5zM323 132q72 0 108 57t36 151t-36 151t-108 57q-73 0 -109 -57t-36 -151t36 -151t109 -57z" />
    <glyph glyph-name="one.tf" horiz-adv-x="650" 
d="M603 137v-137h-538v137h202v365l-160 -45v146l222 77h100v-543h174z" />
    <glyph glyph-name="two.tf" horiz-adv-x="650" 
d="M561 137v-137h-485v80l207 251q9 10 24 28t21.5 26t17.5 21t15.5 20.5t9.5 17.5t7 18.5t2 17.5q0 27 -18.5 47t-55.5 20q-36 0 -57.5 -21.5t-25.5 -60.5h-161q2 104 65.5 167t177.5 63t181.5 -60.5t67.5 -148.5q0 -47 -29.5 -94.5t-110.5 -144.5l-92 -110h239z" />
    <glyph glyph-name="three.tf" horiz-adv-x="650" 
d="M491 342q87 -48 87 -145q0 -93 -71 -152.5t-185 -59.5q-116 0 -180.5 57t-76.5 157h158q8 -38 32 -58t73 -20q41 0 67 21.5t26 54.5q0 35 -28.5 56.5t-72.5 21.5h-59v124h59q40 0 64.5 21.5t24.5 56.5t-22.5 56t-60.5 21t-62.5 -21.5t-27.5 -57.5h-157q6 98 71.5 156
t171.5 58q107 0 172 -57t65 -149t-68 -141z" />
    <glyph glyph-name="four.tf" horiz-adv-x="650" 
d="M604 120h-85v-120h-159v120h-346v105l185 455h162l-160 -419h159v187h159v-187h85v-141z" />
    <glyph glyph-name="five.tf" horiz-adv-x="650" 
d="M241 442h84q112 0 177.5 -62t65.5 -160q0 -104 -72 -169.5t-189 -65.5q-114 0 -185.5 58t-82.5 156h159q22 -78 109 -78q47 0 77 27t30 69q0 41 -31 66t-85 25h-212l1 372h449v-144h-294z" />
    <glyph glyph-name="six.tf" horiz-adv-x="650" 
d="M472 680l-130 -203q112 -6 182.5 -74t70.5 -166q0 -108 -77 -180t-198 -72t-197.5 72t-76.5 177q0 71 58 165l177 281h191zM320 120q50 0 83 33.5t33 77.5t-32.5 77t-83.5 33q-48 0 -80 -23l-4 -7q-33 -47 -33 -81q0 -44 33.5 -77t83.5 -33z" />
    <glyph glyph-name="seven.tf" horiz-adv-x="650" 
d="M576 680v-95l-261 -585h-183l239 529h-291v151h496z" />
    <glyph glyph-name="eight.tf" horiz-adv-x="650" 
d="M495 361q109 -54 109 -164q0 -97 -73 -154.5t-202 -57.5t-202 57.5t-73 154.5q0 110 109 164q-81 49 -81 138q0 87 69 141.5t178 54.5q108 0 177 -54.5t69 -141.5q0 -88 -80 -138zM329 573q-41 0 -67.5 -24t-26.5 -60t26.5 -60t67.5 -24t67.5 24.5t26.5 59.5
q0 36 -26.5 60t-67.5 24zM329 117q44 0 73 26.5t29 64.5t-29 63t-73 25q-45 0 -73.5 -25t-28.5 -63q0 -39 28.5 -65t73.5 -26z" />
    <glyph glyph-name="nine.tf" horiz-adv-x="623" 
d="M307 695q121 0 197.5 -72t76.5 -177q0 -71 -58 -165l-177 -281h-191l130 203q-112 6 -182.5 74t-70.5 166q0 108 77 180t198 72zM387 362l4 7q33 47 33 81q0 44 -33.5 77t-83.5 33t-83 -33.5t-33 -77.5t32.5 -77t83.5 -33q48 0 80 23z" />
    <glyph glyph-name="zero.zero" horiz-adv-x="718" 
d="M360 695q145 0 230 -99t85 -256t-85 -256t-230 -99t-230.5 99t-85.5 256t85.5 256t230.5 99zM359 548q-74 0 -114.5 -58t-40.5 -150q0 -50 12 -91l199 288q-25 11 -56 11zM359 132q73 0 113.5 58t40.5 150q0 51 -14 95l-201 -290q26 -13 61 -13z" />
    <glyph glyph-name="zero.osf.zero" horiz-adv-x="640" 
d="M320 553q126 0 206 -78.5t80 -204.5q0 -125 -80 -203.5t-206 -78.5q-125 0 -206 78.5t-81 203.5q0 126 81 204.5t206 78.5zM321 413q-58 0 -97.5 -40t-39.5 -103q0 -29 10 -57l185 188q-27 12 -58 12zM321 127q57 0 96.5 40t39.5 103q0 32 -11 60l-187 -189
q30 -14 62 -14z" />
    <glyph glyph-name="zero.dnom" horiz-adv-x="455" 
d="M227 424q93 0 148 -60.5t55 -156.5q0 -95 -55 -155.5t-148 -60.5q-92 0 -147 60.5t-55 155.5t55 156t147 61zM227 95q42 0 65 31.5t23 80.5t-23 81t-65 32t-64.5 -32t-22.5 -81t22.5 -80.5t64.5 -31.5z" />
    <glyph glyph-name="one.dnom" horiz-adv-x="341" 
d="M336 97v-97h-311v97h102v192l-97 -27v103l141 46h67v-314h98z" />
    <glyph glyph-name="two.dnom" horiz-adv-x="373" 
d="M345 97v-97h-311v57l139 156q28 32 37.5 45.5t9.5 26.5q0 14 -9.5 22.5t-25.5 8.5q-41 0 -43 -41h-110q1 66 40.5 105.5t112.5 39.5q72 0 114 -36.5t42 -89.5q0 -29 -16.5 -60t-59.5 -81l-48 -56h128z" />
    <glyph glyph-name="three.dnom" horiz-adv-x="384" 
d="M304 206q49 -28 49 -85t-44.5 -94t-116.5 -37q-71 0 -113 36t-50 100h112q11 -39 53 -39q22 0 34.5 10t12.5 26q0 36 -57 36h-33v88h33q23 0 36.5 10t13.5 27q0 36 -42 36q-38 0 -42 -40h-112q4 64 44 100t108 36q69 0 110 -35.5t41 -93.5q0 -50 -37 -81z" />
    <glyph glyph-name="four.dnom" horiz-adv-x="420" 
d="M394 68h-48v-68h-114v68h-209v75l110 268h116l-92 -243h75v93h114v-93h48v-100z" />
    <glyph glyph-name="five.dnom" horiz-adv-x="397" 
d="M169 269h40q73 0 111.5 -36.5t38.5 -97.5q0 -64 -44.5 -104t-117.5 -40q-70 0 -114.5 36t-50.5 96h113q11 -36 53 -36q23 0 37.5 12.5t14.5 32.5q0 46 -54 46h-136v233h280v-99h-171v-43z" />
    <glyph glyph-name="six.dnom" horiz-adv-x="396" 
d="M300 411l-76 -120q67 -7 106 -48t39 -98q0 -65 -47.5 -109.5t-123.5 -44.5q-75 0 -123 44.5t-48 106.5q0 46 38 105l100 164h135zM198 86q25 0 42 16t17 39q0 25 -16.5 40.5t-42.5 15.5t-43 -15q-16 -24 -16 -40q0 -24 16.5 -40t42.5 -16z" />
    <glyph glyph-name="seven.dnom" horiz-adv-x="347" 
d="M330 411v-67l-155 -344h-131l140 304h-167v107h313z" />
    <glyph glyph-name="eight.dnom" horiz-adv-x="408" 
d="M315 218q62 -35 62 -98q0 -59 -46 -94t-127 -35t-126.5 35t-45.5 94q0 64 61 98q-45 29 -45 81q0 54 43.5 87.5t112.5 33.5t112.5 -33.5t43.5 -87.5q0 -52 -45 -81zM204 334q-20 0 -33 -11.5t-13 -30.5t13 -31t33 -12t33 12t13 31t-13 30.5t-33 11.5zM204 84q22 0 36 12
t14 32t-14 32t-36 12t-35.5 -12t-13.5 -32t13.5 -32t35.5 -12z" />
    <glyph glyph-name="nine.dnom" horiz-adv-x="396" 
d="M198 421q75 0 123 -44.5t48 -106.5q0 -46 -38 -105l-100 -164h-135l76 120q-67 7 -106 48t-39 98q0 65 47.5 109.5t123.5 44.5zM198 215q26 0 43 15q16 24 16 40q0 24 -16.5 40t-42.5 16q-25 0 -42 -16t-17 -39q0 -25 16.5 -40.5t42.5 -15.5z" />
    <glyph glyph-name="zero.numr" horiz-adv-x="455" 
d="M227 693q93 0 148 -60.5t55 -156.5q0 -95 -55 -155.5t-148 -60.5q-92 0 -147 60.5t-55 155.5t55 156t147 61zM227 364q42 0 65 31.5t23 80.5t-23 81t-65 32t-64.5 -32t-22.5 -81t22.5 -80.5t64.5 -31.5z" />
    <glyph glyph-name="one.numr" horiz-adv-x="341" 
d="M336 366v-97h-311v97h102v192l-97 -27v103l141 46h67v-314h98z" />
    <glyph glyph-name="two.numr" horiz-adv-x="373" 
d="M345 366v-97h-311v57l139 156q28 32 37.5 45.5t9.5 26.5q0 14 -9.5 22.5t-25.5 8.5q-41 0 -43 -41h-110q1 66 40.5 105.5t112.5 39.5q72 0 114 -36.5t42 -89.5q0 -29 -16.5 -60t-59.5 -81l-48 -56h128z" />
    <glyph glyph-name="three.numr" horiz-adv-x="384" 
d="M304 479q49 -28 49 -85t-44.5 -94t-116.5 -37q-71 0 -113 36t-50 100h112q11 -39 53 -39q22 0 34.5 10t12.5 26q0 36 -57 36h-33v88h33q23 0 36.5 10t13.5 27q0 36 -42 36q-38 0 -42 -40h-112q4 64 44 100t108 36q69 0 110 -35.5t41 -93.5q0 -50 -37 -81z" />
    <glyph glyph-name="four.numr" horiz-adv-x="420" 
d="M394 337h-48v-68h-114v68h-209v75l110 268h116l-92 -243h75v93h114v-93h48v-100z" />
    <glyph glyph-name="five.numr" horiz-adv-x="397" 
d="M169 538h40q73 0 111.5 -36.5t38.5 -97.5q0 -64 -44.5 -104t-117.5 -40q-70 0 -114.5 36t-50.5 96h113q11 -36 53 -36q23 0 37.5 12.5t14.5 32.5q0 46 -54 46h-136v233h280v-99h-171v-43z" />
    <glyph glyph-name="six.numr" horiz-adv-x="396" 
d="M300 680l-76 -120q67 -7 106 -48t39 -98q0 -65 -47.5 -109.5t-123.5 -44.5q-75 0 -123 44.5t-48 106.5q0 46 38 105l100 164h135zM198 355q25 0 42 16t17 39q0 25 -16.5 40.5t-42.5 15.5t-43 -15q-16 -24 -16 -40q0 -24 16.5 -40t42.5 -16z" />
    <glyph glyph-name="seven.numr" horiz-adv-x="347" 
d="M330 680v-67l-155 -344h-131l140 304h-167v107h313z" />
    <glyph glyph-name="eight.numr" horiz-adv-x="408" 
d="M315 491q62 -35 62 -98q0 -59 -46 -94t-127 -35t-126.5 35t-45.5 94q0 64 61 98q-45 29 -45 81q0 54 43.5 87.5t112.5 33.5t112.5 -33.5t43.5 -87.5q0 -52 -45 -81zM204 607q-20 0 -33 -11.5t-13 -30.5t13 -31t33 -12t33 12t13 31t-13 30.5t-33 11.5zM204 357q22 0 36 12
t14 32t-14 32t-36 12t-35.5 -12t-13.5 -32t13.5 -32t35.5 -12z" />
    <glyph glyph-name="nine.numr" horiz-adv-x="396" 
d="M198 694q75 0 123 -44.5t48 -106.5q0 -46 -38 -105l-100 -164h-135l76 120q-67 7 -106 48t-39 98q0 65 47.5 109.5t123.5 44.5zM198 488q26 0 43 15q16 24 16 40q0 24 -16.5 40t-42.5 16q-25 0 -42 -16t-17 -39q0 -25 16.5 -40.5t42.5 -15.5z" />
    <glyph glyph-name="backslash.case" horiz-adv-x="399" 
d="M8 730h162l220 -777h-162z" />
    <glyph glyph-name="bullet.case" horiz-adv-x="358" 
d="M178 181q-61 0 -106 45t-45 106t45 106t106 45q62 0 107.5 -45t45.5 -106t-45.5 -106t-107.5 -45z" />
    <glyph glyph-name="exclamdown.case" horiz-adv-x="295" 
d="M147 691q36 0 62 -24t26 -60t-26 -60t-62 -24t-61.5 24t-25.5 60t25.5 60t61.5 24zM62 0l14 458h142l14 -458h-170z" />
    <glyph glyph-name="periodcentered.case" horiz-adv-x="235" 
d="M117 243q-37 0 -63.5 25t-26.5 63q0 36 26.5 61t63.5 25q38 0 65 -25t27 -61q0 -38 -27 -63t-65 -25z" />
    <glyph glyph-name="questiondown.case" horiz-adv-x="539" 
d="M298 691q36 0 62 -24t26 -60t-26 -60t-62 -24t-62 24t-26 60t26 60t62 24zM356 461l10 -163h-82q-43 0 -71 -23.5t-28 -63.5q0 -38 24 -61.5t64 -23.5q39 0 63.5 21.5t28.5 57.5h157q-6 -99 -69 -156.5t-175 -57.5q-106 0 -174.5 61t-68.5 159q0 79 51.5 129.5
t141.5 62.5l5 58h123z" />
    <glyph glyph-name="slash.case" horiz-adv-x="399" 
d="M28 -47l220 777h162l-220 -777h-162z" />
    <glyph glyph-name="braceleft.case" horiz-adv-x="368" 
d="M268 538v-91q0 -43 -17 -67t-60 -37q43 -13 60 -37.5t17 -67.5v-90q0 -24 20 -38.5t53 -14.5v-151q-107 0 -171 52.5t-64 141.5v88q0 38 -15 45.5t-64 7.5v128q24 0 31.5 0.5t20.5 2.5t16.5 7.5t7 15.5t3.5 27v88q0 89 64 141.5t171 52.5v-151q-33 0 -53 -15t-20 -38z
" />
    <glyph glyph-name="braceright.case" horiz-adv-x="378" 
d="M110 447v91q0 23 -20 38t-53 15v151q107 0 171 -52.5t64 -141.5v-88q0 -20 3 -31t16 -16t22 -5.5t38 -0.5v-128q-28 0 -38 -0.5t-22.5 -5.5t-15.5 -16t-3 -31v-88q0 -89 -64 -141.5t-171 -52.5v151q33 0 53 14.5t20 38.5v90q0 43 17 67.5t60 37.5q-43 13 -60 37t-17 67z
" />
    <glyph glyph-name="bracketleft.case" horiz-adv-x="394" 
d="M222 105h146v-152h-308v777h308v-151h-146v-474z" />
    <glyph glyph-name="bracketright.case" horiz-adv-x="394" 
d="M27 579v151h307v-777h-307v152h145v474h-145z" />
    <glyph glyph-name="parenleft.case" horiz-adv-x="372" 
d="M241 731l111 -104q-77 -84 -106 -140.5t-29 -140.5t29 -140.5t106 -140.5l-111 -104q-104 93 -150.5 182.5t-46.5 202.5t46.5 202.5t150.5 182.5z" />
    <glyph glyph-name="parenright.case" horiz-adv-x="372" 
d="M20 627l111 104q104 -93 150.5 -182.5t46.5 -202.5t-46.5 -202.5t-150.5 -182.5l-111 104q76 84 105 140.5t29 140.5t-29 140.5t-105 140.5z" />
    <glyph glyph-name="emdash.case" horiz-adv-x="1069" 
d="M972 252v155h-875v-155h875z" />
    <glyph glyph-name="endash.case" horiz-adv-x="690" 
d="M594 252v155h-497v-155h497z" />
    <glyph glyph-name="hyphen.case" horiz-adv-x="554" 
d="M458 251v154h-361v-154h361z" />
    <glyph glyph-name="guillemotleft.case" horiz-adv-x="486" 
d="M261 489l-95 -160l95 -161h-144l-95 161l95 160h144zM464 489l-95 -160l95 -161h-144l-95 161l95 160h144z" />
    <glyph glyph-name="guillemotright.case" horiz-adv-x="486" 
d="M261 329l-95 -161h-144l95 161l-95 160h144zM464 329l-95 -161h-144l95 161l-95 160h144z" />
    <glyph glyph-name="guilsinglleft.case" horiz-adv-x="283" 
d="M261 489l-95 -160l95 -161h-144l-95 161l95 160h144z" />
    <glyph glyph-name="guilsinglright.case" horiz-adv-x="283" 
d="M261 329l-95 -161h-144l95 161l-95 160h144z" />
    <glyph glyph-name="florin.tf" horiz-adv-x="650" 
d="M511 538q-72 0 -84 -80l-10 -73h154v-129h-172l-21 -151q-15 -108 -70 -168t-146 -60q-57 0 -129 19l22 138q41 -9 74 -9q74 0 84 79l21 152h-122v129h140l10 73q15 108 70 167.5t146 59.5q61 0 129 -18l-21 -138q-43 9 -75 9z" />
    <glyph glyph-name="cent.tf" horiz-adv-x="650" 
d="M322 126q37 0 63 20t32 53h153q-7 -76 -56 -130.5t-125 -71.5v-101h-131v100q-90 19 -145.5 86t-55.5 161t55.5 160.5t145.5 85.5v117h131v-118q76 -17 125 -71.5t56 -130.5h-153q-6 33 -32 53t-63 20q-51 0 -81 -32.5t-30 -83.5t30 -84t81 -33z" />
    <glyph glyph-name="dollar.tf" horiz-adv-x="650" 
d="M619 207q0 -87 -57.5 -144t-156.5 -72v-101h-131v100q-101 14 -167.5 73.5t-76.5 162.5h169q8 -45 45.5 -70.5t97.5 -25.5q47 0 71.5 16t24.5 44q0 44 -72 58l-112 25q-101 22 -149 70.5t-48 129.5q0 89 59 147.5t158 71.5v107h131v-111q85 -17 144.5 -69t68.5 -150h-170
q-15 86 -110 86q-44 0 -70.5 -18t-26.5 -50q0 -27 19 -41t59 -23l95 -22q101 -22 153 -66.5t52 -127.5z" />
    <glyph glyph-name="Euro.tf" horiz-adv-x="650" 
d="M363 132q67 0 90 42h180q-25 -88 -96.5 -138.5t-173.5 -50.5q-114 0 -191.5 62.5t-106.5 170.5h-56v89h42q-1 11 -1 33v18h-41v89h53q26 114 104.5 181t196.5 67q106 0 179 -54.5t96 -147.5h-173q-25 55 -102 55q-99 0 -135 -101h232l-23 -89h-226v-18q0 -22 1 -33h213
l-23 -89h-168q39 -86 129 -86z" />
    <glyph glyph-name="sterling.tf" horiz-adv-x="650" 
d="M266 139h334v-139h-551v139h56v130h-56v126h56v55q0 110 70 176t185 66q108 0 176.5 -58t77.5 -158h-162q-7 36 -31 56t-61 20q-43 0 -68.5 -27.5t-25.5 -74.5v-55h182v-126h-182v-130z" />
    <glyph glyph-name="yen.tf" horiz-adv-x="650" 
d="M463 318h125v-105h-174l-4 -8v-34h178v-105h-178v-66h-170v66h-179v105h179v34l-4 8h-175v105h126l-169 362h187l119 -295l121 295h187z" />
    <glyph glyph-name="arrowdown.ss05" horiz-adv-x="704" 
d="M627 396l-275 -275l-95 95l-180 182l95 95l180 -182l180 180z" />
    <glyph glyph-name="arrowleft.ss05" horiz-adv-x="704" 
d="M532 122l-180 180l-180 -182l-95 95l180 182l95 95l275 -275z" />
    <glyph glyph-name="arrowright.ss05" horiz-adv-x="565" 
d="M277 335l180 -180l-95 -95l-275 275l95 95l182 180l95 -95z" />
    <glyph glyph-name="arrowup.ss05" horiz-adv-x="565" 
d="M384 240l-181 -180l-95 95l180 180l-181 180l95 95l182 -180l95 -95z" />
    <glyph glyph-name="at.case" horiz-adv-x="990" 
d="M713 512v-242q0 -70 48 -70q70 0 70 128q0 136 -92 225.5t-233 89.5q-145 0 -245 -96t-100 -235t98.5 -235t238.5 -96q122 0 214 73l58 -87q-116 -87 -271 -87q-186 0 -316 124.5t-130 307.5q0 120 60.5 219.5t163.5 155.5t226 56q186 0 310 -117t124 -295
q0 -106 -45 -169.5t-138 -63.5q-103 0 -146 65q-60 -63 -147 -63q-84 0 -142.5 60.5t-58.5 150.5t58 150.5t143 60.5q64 0 114 -34v24h138zM490 215q52 0 88 46q-3 27 -3 54v49q-36 44 -85 44q-37 0 -65.5 -26.5t-28.5 -70.5t28 -70t66 -26z" />
    <glyph glyph-name="bar.case" horiz-adv-x="330" 
d="M237 730v-777h-144v777h144z" />
    <glyph glyph-name="brokenbar.case" horiz-adv-x="330" 
d="M237 392h-144v338h144v-338zM237 -47h-144v337h144v-337z" />
    <glyph glyph-name="registered.ss07" horiz-adv-x="815" 
d="M408 695q150 0 257 -102t107 -253t-107 -253t-257 -102t-257 102t-107 253t107 253t257 102zM407 75q110 0 190 77t80 188t-80 188t-190 77q-109 0 -189 -77t-80 -188t80 -188t189 -77zM551 389q0 -59 -52 -89l67 -102h-106l-49 83h-38v-83h-88v303h136q60 0 95 -30
t35 -82zM373 354h46q20 0 31 10t11 26q0 15 -11 24.5t-30 9.5h-47v-70z" />
    <glyph glyph-name="caron.alt" 
d="M384 680l-39 -204h-115l6 204h148z" />
    <glyph glyph-name="acute.case" 
d="M469 877l-100 -160h-151l80 160h171z" />
    <glyph glyph-name="breve.case" 
d="M360 890h115q0 -80 -48 -124.5t-127 -44.5t-127 44.5t-48 124.5h115q0 -32 16.5 -48.5t43.5 -16.5q26 0 43 16.5t17 48.5z" />
    <glyph glyph-name="caron.case" 
d="M494 873l-116 -160h-156l-116 160h142l53 -66l51 66h142z" />
    <glyph glyph-name="circumflex.case" 
d="M301 779l-53 -66h-141l117 164h153l116 -164h-141z" />
    <glyph glyph-name="dieresis.case" 
d="M186 906q38 0 64.5 -25.5t26.5 -62.5t-26.5 -62.5t-64.5 -25.5t-65 25.5t-27 62.5t27 62.5t65 25.5zM415 906q38 0 64.5 -25.5t26.5 -62.5t-26.5 -62.5t-64.5 -25.5t-65 25.5t-27 62.5t27 62.5t65 25.5z" />
    <glyph glyph-name="dotaccent.case" 
d="M300 723q-38 0 -65 25.5t-27 62.5t27 62.5t65 25.5t64.5 -25.5t26.5 -62.5t-26.5 -62.5t-64.5 -25.5z" />
    <glyph glyph-name="grave.case" 
d="M412 717h-151l-100 160h172z" />
    <glyph glyph-name="hungarumlaut.case" 
d="M352 878l-73 -160h-124l53 160h144zM516 878l-73 -160h-124l53 160h144z" />
    <glyph glyph-name="macron.case" 
d="M443 854v-124h-286v124h286z" />
    <glyph glyph-name="ring.case" 
d="M298 952q55 0 89.5 -31.5t34.5 -83.5t-34.5 -84t-89.5 -32t-89.5 32t-34.5 84t34.5 83.5t89.5 31.5zM298 794q20 0 32 11.5t12 31.5q0 19 -12 31t-32 12t-32 -12t-12 -31q0 -20 12 -31.5t32 -11.5z" />
    <glyph glyph-name="tilde.case" 
d="M378 865h119q0 -52 -19.5 -87.5t-49 -49t-61.5 -12.5t-59 17l-38 22q-22 11 -31 3t-9 -27h-119q0 52 19.5 87t49 48.5t61.5 12.5t59 -16l38 -22q22 -11 31 -3t9 27z" />
    </font>
</defs>
</svg>
